  0
SECTION
  2
HEADER
  9
$ACADVER
  1
AC1015
  9
$ACADMAINTVER
 70
     6
  9
$DWGCODEPAGE
  3
ANSI_1252
  9
$INSBASE
 10
0.0
 20
0.0
 30
0.0
  9
$EXTMIN
 10
0.0
 20
0.0
 30
0.0
  9
$EXTMAX
 10
297.0000000000001
 20
210.0000000000001
 30
0.0
  9
$LIMMIN
 10
0.0
 20
0.0
  9
$LIMMAX
 10
12.0
 20
9.0
  9
$ORTHOMODE
 70
     0
  9
$REGENMODE
 70
     1
  9
$FILLMODE
 70
     1
  9
$QTEXTMODE
 70
     0
  9
$MIRRTEXT
 70
     1
  9
$LTSCALE
 40
1.0
  9
$ATTMODE
 70
     1
  9
$TEXTSIZE
 40
0.2
  9
$TRACEWID
 40
0.05
  9
$TEXTSTYLE
  7
Standard
  9
$CLAYER
  8
0
  9
$CELTYPE
  6
ByLayer
  9
$CECOLOR
 62
   256
  9
$CELTSCALE
 40
1.0
  9
$DISPSILH
 70
     0
  9
$DIMSCALE
 40
1.0
  9
$DIMASZ
 40
0.18
  9
$DIMEXO
 40
0.0625
  9
$DIMDLI
 40
0.38
  9
$DIMRND
 40
0.0
  9
$DIMDLE
 40
0.0
  9
$DIMEXE
 40
0.18
  9
$DIMTP
 40
0.0
  9
$DIMTM
 40
0.0
  9
$DIMTXT
 40
0.18
  9
$DIMCEN
 40
0.09
  9
$DIMTSZ
 40
0.0
  9
$DIMTOL
 70
     0
  9
$DIMLIM
 70
     0
  9
$DIMTIH
 70
     1
  9
$DIMTOH
 70
     1
  9
$DIMSE1
 70
     0
  9
$DIMSE2
 70
     0
  9
$DIMTAD
 70
     0
  9
$DIMZIN
 70
     0
  9
$DIMBLK
  1

  9
$DIMASO
 70
     1
  9
$DIMSHO
 70
     1
  9
$DIMPOST
  1

  9
$DIMAPOST
  1

  9
$DIMALT
 70
     0
  9
$DIMALTD
 70
     2
  9
$DIMALTF
 40
25.4
  9
$DIMLFAC
 40
1.0
  9
$DIMTOFL
 70
     0
  9
$DIMTVP
 40
0.0
  9
$DIMTIX
 70
     0
  9
$DIMSOXD
 70
     0
  9
$DIMSAH
 70
     0
  9
$DIMBLK1
  1

  9
$DIMBLK2
  1

  9
$DIMSTYLE
  2
Standard
  9
$DIMCLRD
 70
     0
  9
$DIMCLRE
 70
     0
  9
$DIMCLRT
 70
     0
  9
$DIMTFAC
 40
1.0
  9
$DIMGAP
 40
0.09
  9
$DIMJUST
 70
     0
  9
$DIMSD1
 70
     0
  9
$DIMSD2
 70
     0
  9
$DIMTOLJ
 70
     1
  9
$DIMTZIN
 70
     0
  9
$DIMALTZ
 70
     0
  9
$DIMALTTZ
 70
     0
  9
$DIMUPT
 70
     0
  9
$DIMDEC
 70
     4
  9
$DIMTDEC
 70
     4
  9
$DIMALTU
 70
     2
  9
$DIMALTTD
 70
     2
  9
$DIMTXSTY
  7
Standard
  9
$DIMAUNIT
 70
     0
  9
$DIMADEC
 70
     0
  9
$DIMALTRND
 40
0.0
  9
$DIMAZIN
 70
     0
  9
$DIMDSEP
 70
    46
  9
$DIMATFIT
 70
     3
  9
$DIMFRAC
 70
     0
  9
$DIMLDRBLK
  1

  9
$DIMLUNIT
 70
     2
  9
$DIMLWD
 70
    -2
  9
$DIMLWE
 70
    -2
  9
$DIMTMOVE
 70
     0
  9
$LUNITS
 70
     2
  9
$LUPREC
 70
     4
  9
$SKETCHINC
 40
0.1
  9
$FILLETRAD
 40
0.5
  9
$AUNITS
 70
     0
  9
$AUPREC
 70
     0
  9
$MENU
  1
.
  9
$ELEVATION
 40
0.0
  9
$PELEVATION
 40
0.0
  9
$THICKNESS
 40
0.0
  9
$LIMCHECK
 70
     0
  9
$CHAMFERA
 40
0.5
  9
$CHAMFERB
 40
0.5
  9
$CHAMFERC
 40
1.0
  9
$CHAMFERD
 40
0.0
  9
$SKPOLY
 70
     0
  9
$TDCREATE
 40
2456997.594810891
  9
$TDUCREATE
 40
2456997.553144224
  9
$TDUPDATE
 40
2456997.594811065
  9
$TDUUPDATE
 40
2456997.553144398
  9
$TDINDWG
 40
0.0000000116
  9
$TDUSRTIMER
 40
0.0000000116
  9
$USRTIMER
 70
     1
  9
$ANGBASE
 50
0.0
  9
$ANGDIR
 70
     0
  9
$PDMODE
 70
     0
  9
$PDSIZE
 40
0.0
  9
$PLINEWID
 40
0.0
  9
$SPLFRAME
 70
     0
  9
$SPLINETYPE
 70
     6
  9
$SPLINESEGS
 70
     8
  9
$HANDSEED
  5
1EC
  9
$SURFTAB1
 70
     6
  9
$SURFTAB2
 70
     6
  9
$SURFTYPE
 70
     6
  9
$SURFU
 70
     6
  9
$SURFV
 70
     6
  9
$UCSBASE
  2

  9
$UCSNAME
  2

  9
$UCSORG
 10
0.0
 20
0.0
 30
0.0
  9
$UCSXDIR
 10
1.0
 20
0.0
 30
0.0
  9
$UCSYDIR
 10
0.0
 20
1.0
 30
0.0
  9
$UCSORTHOREF
  2

  9
$UCSORTHOVIEW
 70
     0
  9
$UCSORGTOP
 10
0.0
 20
0.0
 30
0.0
  9
$UCSORGBOTTOM
 10
0.0
 20
0.0
 30
0.0
  9
$UCSORGLEFT
 10
0.0
 20
0.0
 30
0.0
  9
$UCSORGRIGHT
 10
0.0
 20
0.0
 30
0.0
  9
$UCSORGFRONT
 10
0.0
 20
0.0
 30
0.0
  9
$UCSORGBACK
 10
0.0
 20
0.0
 30
0.0
  9
$PUCSBASE
  2

  9
$PUCSNAME
  2

  9
$PUCSORG
 10
0.0
 20
0.0
 30
0.0
  9
$PUCSXDIR
 10
1.0
 20
0.0
 30
0.0
  9
$PUCSYDIR
 10
0.0
 20
1.0
 30
0.0
  9
$PUCSORTHOREF
  2

  9
$PUCSORTHOVIEW
 70
     0
  9
$PUCSORGTOP
 10
0.0
 20
0.0
 30
0.0
  9
$PUCSORGBOTTOM
 10
0.0
 20
0.0
 30
0.0
  9
$PUCSORGLEFT
 10
0.0
 20
0.0
 30
0.0
  9
$PUCSORGRIGHT
 10
0.0
 20
0.0
 30
0.0
  9
$PUCSORGFRONT
 10
0.0
 20
0.0
 30
0.0
  9
$PUCSORGBACK
 10
0.0
 20
0.0
 30
0.0
  9
$USERI1
 70
     0
  9
$USERI2
 70
     0
  9
$USERI3
 70
     0
  9
$USERI4
 70
     0
  9
$USERI5
 70
     0
  9
$USERR1
 40
18.1
  9
$USERR2
 40
0.0
  9
$USERR3
 40
0.0
  9
$USERR4
 40
0.0
  9
$USERR5
 40
0.0
  9
$WORLDVIEW
 70
     1
  9
$SHADEDGE
 70
     3
  9
$SHADEDIF
 70
    70
  9
$TILEMODE
 70
     1
  9
$MAXACTVP
 70
    64
  9
$PINSBASE
 10
0.0
 20
0.0
 30
0.0
  9
$PLIMCHECK
 70
     0
  9
$PEXTMIN
 10
1.00000000000000E+20
 20
1.00000000000000E+20
 30
1.00000000000000E+20
  9
$PEXTMAX
 10
-1.00000000000000E+20
 20
-1.00000000000000E+20
 30
-1.00000000000000E+20
  9
$PLIMMIN
 10
0.0
 20
0.0
  9
$PLIMMAX
 10
12.0
 20
9.0
  9
$UNITMODE
 70
     0
  9
$VISRETAIN
 70
     1
  9
$PLINEGEN
 70
     0
  9
$PSLTSCALE
 70
     1
  9
$TREEDEPTH
 70
  3020
  9
$CMLSTYLE
  2
Standard
  9
$CMLJUST
 70
     0
  9
$CMLSCALE
 40
1.0
  9
$PROXYGRAPHICS
 70
     1
  9
$MEASUREMENT
 70
     1
  9
$CELWEIGHT
370
    -1
  9
$ENDCAPS
280
     0
  9
$JOINSTYLE
280
     0
  9
$LWDISPLAY
290
     0
  9
$INSUNITS
 70
     4
  9
$HYPERLINKBASE
  1

  9
$STYLESHEET
  1

  9
$XEDIT
290
     1
  9
$CEPSNTYPE
380
     0
  9
$PSTYLEMODE
290
     1
  9
$FINGERPRINTGUID
  2
{EAA2EC53-C900-41A5-AE73-9A834C756215}
  9
$VERSIONGUID
  2
{FAEB1C32-E019-11D5-929B-00C0DF256EC4}
  9
$EXTNAMES
290
     1
  9
$PSVPSCALE
 40
0.0
  9
$OLESTARTUP
290
     0
  0
ENDSEC
  0
SECTION
  2
CLASSES
  0
CLASS
  1
ACDBDICTIONARYWDFLT
  2
AcDbDictionaryWithDefault
  3
ObjectDBX Classes
 90
        0
280
     0
281
     0
  0
CLASS
  1
VISUALSTYLE
  2
AcDbVisualStyle
  3
ObjectDBX Classes
 90
     4095
280
     0
281
     0
  0
CLASS
  1
MATERIAL
  2
AcDbMaterial
  3
ObjectDBX Classes
 90
     1153
280
     0
281
     0
  0
CLASS
  1
DICTIONARYVAR
  2
AcDbDictionaryVar
  3
ObjectDBX Classes
 90
        0
280
     0
281
     0
  0
CLASS
  1
ACDBPLACEHOLDER
  2
AcDbPlaceHolder
  3
ObjectDBX Classes
 90
        0
280
     0
281
     0
  0
CLASS
  1
LAYOUT
  2
AcDbLayout
  3
ObjectDBX Classes
 90
        0
280
     0
281
     0
  0
ENDSEC
  0
SECTION
  2
TABLES
  0
TABLE
  2
VPORT
  5
8
330
0
100
AcDbSymbolTable
 70
     1
  0
VPORT
  5
29
330
8
100
AcDbSymbolTableRecord
100
AcDbViewportTableRecord
  2
*Active
 70
     0
 10
0.0
 20
0.0
 11
1.0
 21
1.0
 12
148.5000000000001
 22
105.0000000000001
 13
0.0
 23
0.0
 14
0.5
 24
0.5
 15
0.5
 25
0.5
 16
0.0
 26
0.0
 36
1.0
 17
0.0
 27
0.0
 37
0.0
 40
231.0000000000001
 41
1.60267857142857
 42
50.0
 43
0.0
 44
0.0
 50
0.0
 51
0.0
 71
     0
 72
   100
 73
     1
 74
     3
 75
     0
 76
     0
 77
     0
 78
     0
281
     0
 65
     1
110
0.0
120
0.0
130
0.0
111
1.0
121
0.0
131
0.0
112
0.0
122
1.0
132
0.0
 79
     0
146
0.0
  0
ENDTAB
  0
TABLE
  2
LTYPE
  5
5
330
0
100
AcDbSymbolTable
 70
     8
  0
LTYPE
  5
14
330
5
100
AcDbSymbolTableRecord
100
AcDbLinetypeTableRecord
  2
ByBlock
 70
     0
  3

 72
    65
 73
     0
 40
0.0
  0
LTYPE
  5
15
330
5
100
AcDbSymbolTableRecord
100
AcDbLinetypeTableRecord
  2
ByLayer
 70
     0
  3

 72
    65
 73
     0
 40
0.0
  0
LTYPE
  5
16
330
5
100
AcDbSymbolTableRecord
100
AcDbLinetypeTableRecord
  2
Continuous
 70
     0
  3
Solid line
 72
    65
 73
     0
 40
0.0
  0
LTYPE
  5
3F
330
5
100
AcDbSymbolTableRecord
100
AcDbLinetypeTableRecord
  2
DASHED
 70
     0
  3
Dashed
 72
    65
 73
     2
 40
15.0
 49
7.0
 74
     0
 49
-8.0
 74
     0
  0
LTYPE
  5
40
330
5
100
AcDbSymbolTableRecord
100
AcDbLinetypeTableRecord
  2
DOTTED
 70
     0
  3
Dotted
 72
    65
 73
     2
 40
1.0
 49
0.0
 74
     0
 49
-1.0
 74
     0
  0
LTYPE
  5
41
330
5
100
AcDbSymbolTableRecord
100
AcDbLinetypeTableRecord
  2
DOT_CENTER
 70
     0
  3
Dot_Center
 72
    65
 73
     4
 40
14.0
 49
12.0
 74
     0
 49
-1.0
 74
     0
 49
0.0
 74
     0
 49
-1.0
 74
     0
  0
LTYPE
  5
42
330
5
100
AcDbSymbolTableRecord
100
AcDbLinetypeTableRecord
  2
LONG_DASHED
 70
     0
  3
Long_Dashed
 72
    65
 73
     2
 40
15.0
 49
10.0
 74
     0
 49
-5.0
 74
     0
  0
LTYPE
  5
43
330
5
100
AcDbSymbolTableRecord
100
AcDbLinetypeTableRecord
  2
DASH_CENTER
 70
     0
  3
Dash_Center
 72
    65
 73
     4
 40
14.0
 49
11.0
 74
     0
 49
-1.0
 74
     0
 49
1.0
 74
     0
 49
-1.0
 74
     0
  0
LTYPE
  5
44
330
5
100
AcDbSymbolTableRecord
100
AcDbLinetypeTableRecord
  2
PHANTOM
 70
     0
  3
Phantom
 72
    65
 73
     6
 40
13.0
 49
10.0
 74
     0
 49
-1.0
 74
     0
 49
0.0
 74
     0
 49
-1.0
 74
     0
 49
0.0
 74
     0
 49
-1.0
 74
     0
  0
LTYPE
  5
45
330
5
100
AcDbSymbolTableRecord
100
AcDbLinetypeTableRecord
  2
CENTER_DASH_DASH
 70
     0
  3
Center_Dash_Dash
 72
    65
 73
     6
 40
14.0
 49
9.0
 74
     0
 49
-1.0
 74
     0
 49
1.0
 74
     0
 49
-1.0
 74
     0
 49
1.0
 74
     0
 49
-1.0
 74
     0
  0
ENDTAB
  0
TABLE
  2
LAYER
  5
2
330
0
100
AcDbSymbolTable
 70
     2
  0
LAYER
  5
10
330
2
100
AcDbSymbolTableRecord
100
AcDbLayerTableRecord
  2
0
 70
     0
 62
     7
  6
Continuous
370
    -3
390
F
  0
LAYER
  5
46
330
2
100
AcDbSymbolTableRecord
100
AcDbLayerTableRecord
  2
1
 70
     0
 62
     7
  6
Continuous
370
    -3
390
F
  0
ENDTAB
  0
TABLE
  2
STYLE
  5
3
330
0
100
AcDbSymbolTable
 70
     3
  0
STYLE
  5
11
330
3
100
AcDbSymbolTableRecord
100
AcDbTextStyleTableRecord
  2
Standard
 70
     0
 40
0.0
 41
1.0
 50
0.0
 71
     0
 42
0.2
  3
txt
  4

  0
STYLE
  5
9A
330
3
100
AcDbSymbolTableRecord
100
AcDbTextStyleTableRecord
  2
CONVERTER_11
 70
     0
 40
0.0
 41
1.2
 50
0.0
 71
     0
 42
0.2
  3
ARIAL.TTF
  4

  0
STYLE
  5
175
330
3
100
AcDbSymbolTableRecord
100
AcDbTextStyleTableRecord
  2
CONVERTER_12
 70
     0
 40
0.0
 41
0.95
 50
0.0
 71
     0
 42
0.2
  3
simplex.shx
  4

  0
ENDTAB
  0
TABLE
  2
VIEW
  5
6
330
0
100
AcDbSymbolTable
 70
     0
  0
ENDTAB
  0
TABLE
  2
UCS
  5
7
330
0
100
AcDbSymbolTable
 70
     0
  0
ENDTAB
  0
TABLE
  2
APPID
  5
9
330
0
100
AcDbSymbolTable
 70
     1
  0
APPID
  5
12
330
9
100
AcDbSymbolTableRecord
100
AcDbRegAppTableRecord
  2
ACAD
 70
     0
  0
ENDTAB
  0
TABLE
  2
DIMSTYLE
  5
A
330
0
100
AcDbSymbolTable
 70
     8
100
AcDbDimStyleTable
  0
DIMSTYLE
105
27
330
A
100
AcDbSymbolTableRecord
100
AcDbDimStyleTableRecord
  2
Standard
 70
     0
178
     0
340
11
  0
DIMSTYLE
105
179
102
{ACAD_REACTORS
330
17A
102
}
330
A
100
AcDbSymbolTableRecord
100
AcDbDimStyleTableRecord
  2
ME10_DIM_10
 70
     0
 41
3.0
 42
0.5
 44
1.0
 73
     0
 74
     0
 77
     1
 78
     8
140
3.0
147
2.0
172
     1
173
     1
174
     1
175
     1
176
     2
177
     2
271
     2
178
     4
271
     2
340
175
  0
DIMSTYLE
105
184
102
{ACAD_REACTORS
330
185
102
}
330
A
100
AcDbSymbolTableRecord
100
AcDbDimStyleTableRecord
  2
ME10_DIM_11
 70
     0
  3
M<>
 41
3.0
 42
0.5
 44
1.0
 73
     0
 74
     0
 77
     1
 78
     8
140
3.0
147
2.0
172
     1
173
     1
174
     1
175
     1
176
     2
177
     2
271
     2
178
     4
271
     2
340
175
  0
DIMSTYLE
105
18F
102
{ACAD_REACTORS
330
190
102
}
330
A
100
AcDbSymbolTableRecord
100
AcDbDimStyleTableRecord
  2
ME10_DIM_12
 70
     0
  3
M<>
 41
3.0
 42
0.5
 44
1.0
 73
     0
 74
     0
 77
     1
 78
     8
140
3.0
147
2.0
172
     1
173
     1
174
     1
175
     1
176
     2
177
     2
271
     2
178
     4
271
     2
340
175
  0
DIMSTYLE
105
19A
102
{ACAD_REACTORS
330
19B
102
}
330
A
100
AcDbSymbolTableRecord
100
AcDbDimStyleTableRecord
  2
ME10_DIM_13
 70
     0
 41
3.0
 42
0.5
 44
1.0
 73
     0
 74
     0
 77
     1
 78
     8
140
3.0
147
2.0
172
     1
173
     1
174
     1
175
     1
176
     2
177
     2
271
     2
178
     4
271
     2
340
175
  0
DIMSTYLE
105
1A5
102
{ACAD_REACTORS
330
1A6
102
}
330
A
100
AcDbSymbolTableRecord
100
AcDbDimStyleTableRecord
  2
ME10_DIM_14
 70
     0
 41
3.0
 42
0.5
 44
1.0
 73
     0
 74
     0
 77
     1
 78
     8
140
3.0
147
2.0
172
     1
173
     1
174
     1
175
     1
176
     2
177
     2
271
     2
178
     4
271
     2
340
175
  0
DIMSTYLE
105
1B0
102
{ACAD_REACTORS
330
1B1
102
}
330
A
100
AcDbSymbolTableRecord
100
AcDbDimStyleTableRecord
  2
ME10_DIM_15
 70
     0
 41
3.0
 42
0.5
 44
1.0
 73
     0
 74
     0
 77
     1
 78
     8
140
3.0
147
2.0
172
     1
173
     1
174
     1
175
     1
176
     2
177
     2
271
     2
178
     4
271
     2
340
175
  0
DIMSTYLE
105
1BB
102
{ACAD_REACTORS
330
1BC
102
}
330
A
100
AcDbSymbolTableRecord
100
AcDbDimStyleTableRecord
  2
ME10_DIM_16
 70
     0
 41
3.0
 42
0.5
 44
1.0
 73
     0
 74
     0
 77
     1
 78
     8
140
3.0
147
2.0
172
     1
173
     1
174
     1
175
     1
176
     2
177
     2
271
     2
178
     4
271
     2
340
175
  0
ENDTAB
  0
TABLE
  2
BLOCK_RECORD
  5
1
330
0
100
AcDbSymbolTable
 70
    10
  0
BLOCK_RECORD
  5
1F
330
1
100
AcDbSymbolTableRecord
100
AcDbBlockTableRecord
  2
*Model_Space
340
22
  0
BLOCK_RECORD
  5
1B
330
1
100
AcDbSymbolTableRecord
100
AcDbBlockTableRecord
  2
*Paper_Space
340
1E
  0
BLOCK_RECORD
  5
23
330
1
100
AcDbSymbolTableRecord
100
AcDbBlockTableRecord
  2
*Paper_Space0
340
26
  0
BLOCK_RECORD
  5
47
330
1
100
AcDbSymbolTableRecord
100
AcDbBlockTableRecord
  2
_formato_A4
340
0
102
{BLKREFS
331
4B
102
}
  0
BLOCK_RECORD
  5
4A
330
1
100
AcDbSymbolTableRecord
100
AcDbBlockTableRecord
  2
A4_oriz
340
0
102
{BLKREFS
331
4E
102
}
  0
BLOCK_RECORD
  5
16F
330
1
100
AcDbSymbolTableRecord
100
AcDbBlockTableRecord
  2
*D3
340
0
  0
BLOCK_RECORD
  5
17B
330
1
100
AcDbSymbolTableRecord
100
AcDbBlockTableRecord
  2
*D4
340
0
  0
BLOCK_RECORD
  5
186
330
1
100
AcDbSymbolTableRecord
100
AcDbBlockTableRecord
  2
*D5
340
0
  0
BLOCK_RECORD
  5
191
330
1
100
AcDbSymbolTableRecord
100
AcDbBlockTableRecord
  2
*D6
340
0
  0
BLOCK_RECORD
  5
19C
330
1
100
AcDbSymbolTableRecord
100
AcDbBlockTableRecord
  2
*D7
340
0
  0
BLOCK_RECORD
  5
1A7
330
1
100
AcDbSymbolTableRecord
100
AcDbBlockTableRecord
  2
*D8
340
0
  0
BLOCK_RECORD
  5
1B2
330
1
100
AcDbSymbolTableRecord
100
AcDbBlockTableRecord
  2
*D9
340
0
  0
ENDTAB
  0
ENDSEC
  0
SECTION
  2
BLOCKS
  0
BLOCK
  5
20
330
1F
100
AcDbEntity
  8
0
100
AcDbBlockBegin
  2
*Model_Space
 70
     0
 10
0.0
 20
0.0
 30
0.0
  3
*Model_Space
  1

  0
ENDBLK
  5
21
330
1F
100
AcDbEntity
  8
0
100
AcDbBlockEnd
  0
BLOCK
  5
1C
330
1B
100
AcDbEntity
 67
     1
  8
0
100
AcDbBlockBegin
  2
*Paper_Space
 70
     0
 10
0.0
 20
0.0
 30
0.0
  3
*Paper_Space
  1

  0
ENDBLK
  5
1D
330
1B
100
AcDbEntity
 67
     1
  8
0
100
AcDbBlockEnd
  0
BLOCK
  5
24
330
23
100
AcDbEntity
  8
0
100
AcDbBlockBegin
  2
*Paper_Space0
 70
     0
 10
0.0
 20
0.0
 30
0.0
  3
*Paper_Space0
  1

  0
ENDBLK
  5
25
330
23
100
AcDbEntity
  8
0
100
AcDbBlockEnd
  0
BLOCK
  5
48
330
47
100
AcDbEntity
  8
0
100
AcDbBlockBegin
  2
_formato_A4
 70
     0
 10
297.0000000000001
 20
0.0
 30
0.0
  3
_formato_A4
  1

  0
LINE
  5
4F
330
47
100
AcDbEntity
  8
1
  6
Continuous
 62
     7
100
AcDbLine
 10
108.0000000000001
 20
4.99999999999991
 30
0.0
 11
108.0000000000001
 21
40.0
 31
0.0
  0
LINE
  5
50
330
47
100
AcDbEntity
  8
1
  6
Continuous
 62
     7
100
AcDbLine
 10
108.0000000000001
 20
20.0
 30
0.0
 11
292.0000000000001
 21
20.0
 31
0.0
  0
LINE
  5
51
330
47
100
AcDbEntity
  8
1
  6
Continuous
 62
     7
100
AcDbLine
 10
4.99999999999989
 20
189.0
 30
0.0
 11
4.99999999999989
 21
5.0
 31
0.0
  0
LINE
  5
52
330
47
100
AcDbEntity
  8
1
  6
Continuous
 62
     7
100
AcDbLine
 10
133.0000000000001
 20
35.0
 30
0.0
 11
133.0000000000001
 21
40.0
 31
0.0
  0
LINE
  5
53
330
47
100
AcDbEntity
  8
1
  6
Continuous
 62
     7
100
AcDbLine
 10
115.0000000000001
 20
35.0
 30
0.0
 11
115.0000000000001
 21
40.0
 31
0.0
  0
LINE
  5
54
330
47
100
AcDbEntity
  8
1
  6
Continuous
 62
     7
100
AcDbLine
 10
108.0000000000001
 20
40.0
 30
0.0
 11
292.0000000000001
 21
40.0
 31
0.0
  0
LINE
  5
55
330
47
100
AcDbEntity
  8
1
  6
Continuous
 62
     7
100
AcDbLine
 10
133.0000000000001
 20
30.0
 30
0.0
 11
133.0000000000001
 21
35.0
 31
0.0
  0
LINE
  5
56
330
47
100
AcDbEntity
  8
1
  6
Continuous
 62
     7
100
AcDbLine
 10
115.0000000000001
 20
30.0
 30
0.0
 11
115.0000000000001
 21
35.0
 31
0.0
  0
LINE
  5
57
330
47
100
AcDbEntity
  8
1
  6
Continuous
 62
     7
100
AcDbLine
 10
108.0000000000001
 20
35.0
 30
0.0
 11
292.0000000000001
 21
35.0
 31
0.0
  0
LINE
  5
58
330
47
100
AcDbEntity
  8
1
  6
Continuous
 62
     7
100
AcDbLine
 10
133.0000000000001
 20
25.0
 30
0.0
 11
133.0000000000001
 21
30.0
 31
0.0
  0
LINE
  5
59
330
47
100
AcDbEntity
  8
1
  6
Continuous
 62
     7
100
AcDbLine
 10
115.0000000000001
 20
25.0
 30
0.0
 11
115.0000000000001
 21
30.0
 31
0.0
  0
LINE
  5
5A
330
47
100
AcDbEntity
  8
1
  6
Continuous
 62
     7
100
AcDbLine
 10
108.0000000000001
 20
30.0
 30
0.0
 11
292.0000000000001
 21
30.0
 31
0.0
  0
LINE
  5
5B
330
47
100
AcDbEntity
  8
1
  6
Continuous
 62
     7
100
AcDbLine
 10
133.0000000000001
 20
20.0
 30
0.0
 11
133.0000000000001
 21
25.0
 31
0.0
  0
LINE
  5
5C
330
47
100
AcDbEntity
  8
1
  6
Continuous
 62
     7
100
AcDbLine
 10
115.0000000000001
 20
20.0
 30
0.0
 11
115.0000000000001
 21
25.0
 31
0.0
  0
LINE
  5
5D
330
47
100
AcDbEntity
  8
1
  6
Continuous
 62
     7
100
AcDbLine
 10
108.0000000000001
 20
25.0
 30
0.0
 11
292.0000000000001
 21
25.0
 31
0.0
  0
LINE
  5
5E
102
{ACAD_REACTORS
330
9F
102
}
330
47
100
AcDbEntity
  8
1
  6
Continuous
 62
     7
100
AcDbLine
 10
282.8428748399061
 20
10.55800208038031
 30
0.0
 11
281.5095415065731
 21
9.7887713111497
 31
0.0
  0
LINE
  5
5F
102
{ACAD_REACTORS
330
9F
102
}
330
47
100
AcDbEntity
  8
1
  6
Continuous
 62
     7
100
AcDbLine
 10
281.676300688743
 20
10.65463653264791
 30
0.0
 11
282.5097265375802
 21
11.13545913774621
 31
0.0
  0
LINE
  5
60
102
{ACAD_REACTORS
330
9F
102
}
330
47
100
AcDbEntity
  8
1
  6
Continuous
 62
     7
100
AcDbLine
 10
281.676300688743
 20
12.1666666666666
 30
0.0
 11
281.676300688743
 21
10.65463653264791
 31
0.0
  0
LINE
  5
61
102
{ACAD_REACTORS
330
9F
102
}
330
47
100
AcDbEntity
  8
1
  6
Continuous
 62
     7
100
AcDbLine
 10
282.676300688743
 20
12.1666666666666
 30
0.0
 11
281.676300688743
 21
12.1666666666666
 31
0.0
  0
LINE
  5
62
102
{ACAD_REACTORS
330
9F
102
}
330
47
100
AcDbEntity
  8
1
  6
Continuous
 62
     7
100
AcDbLine
 10
281.676300688743
 20
12.83333333333331
 30
0.0
 11
282.676300688743
 21
12.83333333333331
 31
0.0
  0
LINE
  5
63
102
{ACAD_REACTORS
330
9F
102
}
330
47
100
AcDbEntity
  8
1
  6
Continuous
 62
     7
100
AcDbLine
 10
281.676300688743
 20
14.34536346735192
 30
0.0
 11
281.676300688743
 21
12.83333333333331
 31
0.0
  0
LINE
  5
64
102
{ACAD_REACTORS
330
9F
102
}
330
47
100
AcDbEntity
  8
1
  6
Continuous
 62
     7
100
AcDbLine
 10
282.5097265375802
 20
13.86454086225382
 30
0.0
 11
281.676300688743
 21
14.34536346735192
 31
0.0
  0
LINE
  5
65
102
{ACAD_REACTORS
330
9F
102
}
330
47
100
AcDbEntity
  8
1
  6
Continuous
 62
     7
100
AcDbLine
 10
281.5095415065731
 20
15.2112286888503
 30
0.0
 11
282.8428748399061
 21
14.44199791961941
 31
0.0
  0
LINE
  5
66
102
{ACAD_REACTORS
330
A0
102
}
330
47
100
AcDbEntity
  8
1
  6
Continuous
 62
     7
100
AcDbLine
 10
274.3429673554091
 20
10.8467306090632
 30
0.0
 11
274.3429673554091
 21
14.15326939093671
 31
0.0
  0
LINE
  5
67
102
{ACAD_REACTORS
330
A0
102
}
330
47
100
AcDbEntity
  8
1
  6
Continuous
 62
     7
100
AcDbLine
 10
275.0096340220761
 20
11.0392519172633
 30
0.0
 11
275.0096340220761
 21
10.8467306090632
 31
0.0
  0
LINE
  5
68
102
{ACAD_REACTORS
330
A0
102
}
330
47
100
AcDbEntity
  8
1
  6
Continuous
 62
     7
100
AcDbLine
 10
275.0096340220761
 20
14.15326939093671
 30
0.0
 11
275.0096340220761
 21
11.0392519172633
 31
0.0
  0
LINE
  5
69
102
{ACAD_REACTORS
330
A1
102
}
330
47
100
AcDbEntity
  8
1
  6
Continuous
 62
     7
100
AcDbLine
 10
278.176393204246
 20
8.44261746499581
 30
0.0
 11
276.0098190530831
 21
9.69256409066691
 31
0.0
  0
LINE
  5
6A
102
{ACAD_REACTORS
330
A1
102
}
330
47
100
AcDbEntity
  8
1
  6
Continuous
 62
     7
100
AcDbLine
 10
276.3429673554091
 20
10.2700211480327
 30
0.0
 11
278.5095415065731
 21
9.0200745223616
 31
0.0
  0
LINE
  5
6B
102
{ACAD_REACTORS
330
A1
102
}
330
47
100
AcDbEntity
  8
1
  6
Continuous
 62
     7
100
AcDbLine
 10
276.3429673554091
 20
14.9225001601674
 30
0.0
 11
276.3429673554091
 21
10.2700211480327
 31
0.0
  0
LINE
  5
6C
102
{ACAD_REACTORS
330
A1
102
}
330
47
100
AcDbEntity
  8
1
  6
Continuous
 62
     7
100
AcDbLine
 10
275.676300688743
 20
10.27002114803261
 30
0.0
 11
275.676300688743
 21
14.9225001601674
 31
0.0
  0
LINE
  5
6D
102
{ACAD_REACTORS
330
A2
102
}
330
47
100
AcDbEntity
  8
1
  6
Continuous
 62
     7
100
AcDbLine
 10
279.848533671786
 20
15.86370041827232
 30
0.0
 11
278.676300688743
 21
13.83333333333331
 31
0.0
  0
LINE
  5
6E
102
{ACAD_REACTORS
330
A2
102
}
330
47
100
AcDbEntity
  8
1
  6
Continuous
 62
     7
100
AcDbLine
 10
280.3429673554091
 20
9.3082690706018
 30
0.0
 11
280.3429673554091
 21
15.7312173120346
 31
0.0
  0
LINE
  5
6F
102
{ACAD_REACTORS
330
A2
102
}
330
47
100
AcDbEntity
  8
1
  6
Continuous
 62
     7
100
AcDbLine
 10
279.676300688743
 20
12.5
 30
0.0
 11
279.676300688743
 21
9.3082690706018
 31
0.0
  0
LINE
  5
70
102
{ACAD_REACTORS
330
A2
102
}
330
47
100
AcDbEntity
  8
1
  6
Continuous
 62
     7
100
AcDbLine
 10
277.676300688743
 20
10.84758507263291
 30
0.0
 11
277.676300688743
 21
12.5
 31
0.0
  0
LINE
  5
71
102
{ACAD_REACTORS
330
A2
102
}
330
47
100
AcDbEntity
  8
1
  6
Continuous
 62
     7
100
AcDbLine
 10
277.0096340220761
 20
12.5
 30
0.0
 11
277.0096340220761
 21
10.84758507263291
 31
0.0
  0
LINE
  5
72
102
{ACAD_REACTORS
330
A2
102
}
330
47
100
AcDbEntity
  8
1
  6
Continuous
 62
     7
100
AcDbLine
 10
277.504067705699
 20
15.86370041827232
 30
0.0
 11
278.676300688743
 21
13.83333333333331
 31
0.0
  0
LINE
  5
73
102
{ACAD_REACTORS
330
A2
102
}
330
47
100
AcDbEntity
  8
1
  6
Continuous
 62
     7
100
AcDbLine
 10
277.0096340220761
 20
12.5
 30
0.0
 11
277.0096340220761
 21
15.7312173120346
 31
0.0
  0
LINE
  5
74
330
47
100
AcDbEntity
  8
1
  6
Continuous
 62
     7
100
AcDbLine
 10
278.676300688743
 20
7.5
 30
0.0
 11
270.259865413601
 21
12.35563573565861
 31
0.0
  0
LINE
  5
75
330
47
100
AcDbEntity
  8
1
  6
Continuous
 62
     7
100
AcDbLine
 10
287.0927359638841
 20
12.35563573565861
 30
0.0
 11
278.676300688743
 21
7.5
 31
0.0
  0
LINE
  5
76
330
47
100
AcDbEntity
  8
1
  6
Continuous
 62
     7
100
AcDbLine
 10
278.676300688743
 20
17.5
 30
0.0
 11
287.0927359638841
 21
12.64436426434131
 31
0.0
  0
LINE
  5
77
330
47
100
AcDbEntity
  8
1
  6
Continuous
 62
     7
100
AcDbLine
 10
270.259865413601
 20
12.64436426434131
 30
0.0
 11
278.676300688743
 21
17.5
 31
0.0
  0
LINE
  5
78
102
{ACAD_REACTORS
330
A2
102
}
330
47
100
AcDbEntity
  8
1
  6
Continuous
 62
     7
100
AcDbLine
 10
277.676300688743
 20
14.23205080756881
 30
0.0
 11
277.676300688743
 21
12.5
 31
0.0
  0
LINE
  5
79
102
{ACAD_REACTORS
330
A2
102
}
330
47
100
AcDbEntity
  8
1
  6
Continuous
 62
     7
100
AcDbLine
 10
278.5319631214451
 20
12.75
 30
0.0
 11
277.676300688743
 21
14.23205080756881
 31
0.0
  0
LINE
  5
7A
102
{ACAD_REACTORS
330
A2
102
}
330
47
100
AcDbEntity
  8
1
  6
Continuous
 62
     7
100
AcDbLine
 10
279.676300688743
 20
14.23205080756881
 30
0.0
 11
278.8206382560401
 21
12.75
 31
0.0
  0
LINE
  5
7B
102
{ACAD_REACTORS
330
A2
102
}
330
47
100
AcDbEntity
  8
1
  6
Continuous
 62
     7
100
AcDbLine
 10
279.676300688743
 20
12.5
 30
0.0
 11
279.676300688743
 21
14.23205080756881
 31
0.0
  0
LINE
  5
7C
102
{ACAD_REACTORS
330
9F
102
}
330
47
100
AcDbEntity
  8
1
  6
Continuous
 62
     7
100
AcDbLine
 10
281.0096340220761
 20
10.0774998398326
 30
0.0
 11
281.0096340220761
 21
14.9225001601674
 31
0.0
  0
LINE
  5
7D
330
47
100
AcDbEntity
  8
1
  6
Continuous
 62
     7
100
AcDbLine
 10
292.0000000000001
 20
189.0
 30
0.0
 11
4.99999999999989
 21
189.0
 31
0.0
  0
LINE
  5
7E
330
47
100
AcDbEntity
  8
1
  6
Continuous
 62
     7
100
AcDbLine
 10
292.0000000000001
 20
5.0
 30
0.0
 11
292.0000000000001
 21
189.0
 31
0.0
  0
LINE
  5
7F
330
47
100
AcDbEntity
  8
1
  6
Continuous
 62
     7
100
AcDbLine
 10
4.99999999999989
 20
5.0
 30
0.0
 11
292.0000000000001
 21
5.0
 31
0.0
  0
LINE
  5
80
330
47
100
AcDbEntity
  8
1
  6
Continuous
 62
     7
100
AcDbLine
 10
297.0000000000001
 20
0.0
 30
0.0
 11
297.0000000000001
 21
210.0000000000001
 31
0.0
  0
LINE
  5
81
330
47
100
AcDbEntity
  8
1
  6
Continuous
 62
     7
100
AcDbLine
 10
297.0000000000001
 20
210.0000000000001
 30
0.0
 11
0.0
 21
210.0000000000001
 31
0.0
  0
LINE
  5
82
330
47
100
AcDbEntity
  8
1
  6
Continuous
 62
     7
100
AcDbLine
 10
0.0
 20
210.0000000000001
 30
0.0
 11
0.0
 21
0.0
 31
0.0
  0
LINE
  5
83
330
47
100
AcDbEntity
  8
1
  6
Continuous
 62
     7
100
AcDbLine
 10
0.0
 20
0.0
 30
0.0
 11
297.0000000000001
 21
0.0
 31
0.0
  0
LINE
  5
84
330
47
100
AcDbEntity
  8
1
  6
Continuous
 62
     7
100
AcDbLine
 10
148.5000000000001
 20
210.0000000000001
 30
0.0
 11
148.5000000000001
 21
195.0000000000001
 31
0.0
  0
LINE
  5
85
330
47
100
AcDbEntity
  8
1
  6
Continuous
 62
     7
100
AcDbLine
 10
108.0000000000001
 20
12.5
 30
0.0
 11
138.0000000000001
 21
12.5
 31
0.0
  0
LINE
  5
86
330
47
100
AcDbEntity
  8
1
  6
Continuous
 62
     7
100
AcDbLine
 10
138.0000000000001
 20
20.0
 30
0.0
 11
138.0000000000001
 21
5.0
 31
0.0
  0
LINE
  5
87
330
47
100
AcDbEntity
  8
1
  6
Continuous
 62
     7
100
AcDbLine
 10
265.352601377485
 20
20.0
 30
0.0
 11
265.352601377485
 21
5.0
 31
0.0
  0
LINE
  5
88
330
47
100
AcDbEntity
  8
1
  6
Continuous
 62
     7
100
AcDbLine
 10
248.0000000000001
 20
20.0
 30
0.0
 11
248.0000000000001
 21
5.0
 31
0.0
  0
ARC
  5
89
102
{ACAD_REACTORS
330
9F
102
}
330
47
100
AcDbEntity
  8
1
  6
Continuous
 62
     7
100
AcDbCircle
 10
282.676300688743
 20
10.8467306090632
 30
0.0
 40
0.3333333333332811
100
AcDbArc
 50
299.9816393688257
 51
119.9816393687816
  0
ARC
  5
8A
102
{ACAD_REACTORS
330
9F
102
}
330
47
100
AcDbEntity
  8
1
  6
Continuous
 62
     7
100
AcDbCircle
 10
282.676300688743
 20
12.5
 30
0.0
 40
0.3333333333333997
100
AcDbArc
 50
270.0
 51
90.0
  0
ARC
  5
8B
102
{ACAD_REACTORS
330
9F
102
}
330
47
100
AcDbEntity
  8
1
  6
Continuous
 62
     7
100
AcDbCircle
 10
282.676300688743
 20
14.15326939093671
 30
0.0
 40
0.3333333333331674
100
AcDbArc
 50
240.0183606312082
 51
60.01836063115797
  0
ARC
  5
8C
102
{ACAD_REACTORS
330
A0
102
}
330
47
100
AcDbEntity
  8
1
  6
Continuous
 62
     7
100
AcDbCircle
 10
274.676300688743
 20
10.8467306090632
 30
0.0
 40
0.3333333333339397
100
AcDbArc
 50
180.0
 51
0.0
  0
ARC
  5
8D
102
{ACAD_REACTORS
330
A0
102
}
330
47
100
AcDbEntity
  8
1
  6
Continuous
 62
     7
100
AcDbCircle
 10
274.676300688743
 20
14.15326939093671
 30
0.0
 40
0.333333333333087
100
AcDbArc
 50
0.0
 51
180.0
  0
ARC
  5
8E
102
{ACAD_REACTORS
330
A1
102
}
330
47
100
AcDbEntity
  8
1
  6
Continuous
 62
     7
100
AcDbCircle
 10
278.3429673554091
 20
8.7313459936787
 30
0.0
 40
0.3333333333333141
100
AcDbArc
 50
240.0183606311663
 51
60.01836063103087
  0
ARC
  5
8F
102
{ACAD_REACTORS
330
A1
102
}
330
47
100
AcDbEntity
  8
1
  6
Continuous
 62
     7
100
AcDbCircle
 10
276.0096340220761
 20
14.9225001601674
 30
0.0
 40
0.3333333333329733
100
AcDbArc
 50
0.0
 51
180.0
  0
ARC
  5
90
102
{ACAD_REACTORS
330
A2
102
}
330
47
100
AcDbEntity
  8
1
  6
Continuous
 62
     7
100
AcDbCircle
 10
280.0780011429341
 20
15.7312173120346
 30
0.0
 40
0.2649662124749739
100
AcDbArc
 50
0.0
 51
149.9999999999808
  0
ARC
  5
91
102
{ACAD_REACTORS
330
A2
102
}
330
47
100
AcDbEntity
  8
1
  6
Continuous
 62
     7
100
AcDbCircle
 10
280.0096340220761
 20
9.3082690706018
 30
0.0
 40
0.333333333333087
100
AcDbArc
 50
180.0
 51
0.0
  0
ARC
  5
92
102
{ACAD_REACTORS
330
A2
102
}
330
47
100
AcDbEntity
  8
1
  6
Continuous
 62
     7
100
AcDbCircle
 10
277.3429673554091
 20
10.84758507263291
 30
0.0
 40
0.3333333333329733
100
AcDbArc
 50
180.0
 51
0.0
  0
ARC
  5
93
102
{ACAD_REACTORS
330
A2
102
}
330
47
100
AcDbEntity
  8
1
  6
Continuous
 62
     7
100
AcDbCircle
 10
277.274600234551
 20
15.7312173120346
 30
0.0
 40
0.2649662124752362
100
AcDbArc
 50
30.00000000002536
 51
180.0
  0
ARC
  5
94
102
{ACAD_REACTORS
330
9F
102
}
330
47
100
AcDbEntity
  8
1
  6
Continuous
 62
     7
100
AcDbCircle
 10
281.3429673554091
 20
10.0774998398326
 30
0.0
 40
0.3333333333329733
100
AcDbArc
 50
180.0
 51
299.981639368969
  0
ARC
  5
95
102
{ACAD_REACTORS
330
9F
102
}
330
47
100
AcDbEntity
  8
1
  6
Continuous
 62
     7
100
AcDbCircle
 10
281.3429673554091
 20
14.9225001601674
 30
0.0
 40
0.3333333333337717
100
AcDbArc
 50
60.01836063103119
 51
180.0
  0
ARC
  5
96
330
47
100
AcDbEntity
  8
1
  6
Continuous
 62
     7
100
AcDbCircle
 10
287.0094488883032
 20
12.5
 30
0.0
 40
0.1666666666662654
100
AcDbArc
 50
299.9816393686406
 51
60.01836063134561
  0
ARC
  5
97
330
47
100
AcDbEntity
  8
1
  6
Continuous
 62
     7
100
AcDbCircle
 10
270.3431524891831
 20
12.5
 30
0.0
 40
0.1666666666668211
100
AcDbArc
 50
119.9816393690268
 51
240.0183606309869
  0
ARC
  5
98
102
{ACAD_REACTORS
330
A1
102
}
330
47
100
AcDbEntity
  8
1
  6
Continuous
 62
     7
100
AcDbCircle
 10
276.3429673554091
 20
10.2700211480327
 30
0.0
 40
0.6666666666660603
100
AcDbArc
 50
180.0000000000078
 51
240.0183606311834
  0
ARC
  5
99
102
{ACAD_REACTORS
330
A2
102
}
330
47
100
AcDbEntity
  8
1
  6
Continuous
 62
     7
100
AcDbCircle
 10
278.676300688743
 20
12.83333333333331
 30
0.0
 40
0.1666666666671286
100
AcDbArc
 50
209.9999999998994
 51
329.999999999954
  0
MTEXT
  5
9B
330
47
100
AcDbEntity
  8
1
 62
     7
100
AcDbMText
 10
256.676300688743
 20
16.26063942075601
 30
0.0
 40
3.0
 41
0.0
 71
     5
 72
     1
  1
Scale
  7
CONVERTER_11
 73
     1
 44
1.32052821128451
  0
MTEXT
  5
9C
330
47
100
AcDbEntity
  8
1
 62
     7
100
AcDbMText
 10
110.0000000000001
 20
8.75
 30
0.0
 40
3.0
 41
0.0
 71
     4
 72
     1
  1
Sign.
  7
CONVERTER_11
 73
     1
 44
1.32052821128451
  0
MTEXT
  5
9D
330
47
100
AcDbEntity
  8
1
 62
     7
100
AcDbMText
 10
110.0000000000001
 20
16.26063942075601
 30
0.0
 40
3.0
 41
0.0
 71
     4
 72
     1
  1
Date
  7
CONVERTER_11
 73
     1
 44
1.32052821128451
  0
MTEXT
  5
9E
330
47
100
AcDbEntity
  8
1
 62
     7
100
AcDbMText
 10
151.5000000000001
 20
194.0000000000001
 30
0.0
 40
4.0
 41
0.0
 71
     5
 72
     1
  1
Diritti riservati      All rights reserved
  7
CONVERTER_11
 73
     1
 44
1.32052821128451
  0
HATCH
  5
9F
330
47
100
AcDbEntity
  8
1
  6
Continuous
 62
     7
100
AcDbHatch
 10
0.0
 20
0.0
 30
0.0
210
0.0
220
0.0
230
1.0
  2
SOLID
 70
     1
 71
     1
 91
        1
 92
        1
 93
       14
 72
     2
 10
281.3429673554091
 20
14.9225001601674
 40
0.3333333333337717
 50
60.01836063103119
 51
180.0
 73
     1
 72
     1
 10
281.0096340220761
 20
14.9225001601674
 11
281.0096340220761
 21
10.0774998398326
 72
     2
 10
281.3429673554091
 20
10.0774998398326
 40
0.3333333333329733
 50
180.0
 51
299.981639368969
 73
     1
 72
     1
 10
281.5095415065731
 20
9.788771311149702
 11
282.8428748399061
 21
10.55800208038031
 72
     2
 10
282.676300688743
 20
10.8467306090632
 40
0.3333333333332811
 50
299.9816393688257
 51
479.9816393687817
 73
     1
 72
     1
 10
282.5097265375802
 20
11.13545913774621
 11
281.676300688743
 21
10.65463653264791
 72
     1
 10
281.676300688743
 20
10.65463653264791
 11
281.676300688743
 21
12.1666666666666
 72
     1
 10
281.676300688743
 20
12.1666666666666
 11
282.676300688743
 21
12.1666666666666
 72
     2
 10
282.676300688743
 20
12.5
 40
0.3333333333333997
 50
270.0
 51
450.0
 73
     1
 72
     1
 10
282.676300688743
 20
12.83333333333331
 11
281.676300688743
 21
12.83333333333331
 72
     1
 10
281.676300688743
 20
12.83333333333331
 11
281.676300688743
 21
14.34536346735192
 72
     1
 10
281.676300688743
 20
14.34536346735192
 11
282.5097265375802
 21
13.86454086225382
 72
     2
 10
282.676300688743
 20
14.15326939093671
 40
0.3333333333331674
 50
240.0183606312082
 51
420.018360631158
 73
     1
 72
     1
 10
282.8428748399061
 20
14.44199791961941
 11
281.5095415065731
 21
15.2112286888503
 97
       14
330
8B
330
64
330
63
330
62
330
8A
330
61
330
60
330
5F
330
89
330
5E
330
94
330
7C
330
95
330
65
 75
     0
 76
     1
 98
        1
 10
0.0
 20
0.0
  0
HATCH
  5
A0
330
47
100
AcDbEntity
  8
1
  6
Continuous
 62
     7
100
AcDbHatch
 10
0.0
 20
0.0
 30
0.0
210
0.0
220
0.0
230
1.0
  2
SOLID
 70
     1
 71
     1
 91
        1
 92
        1
 93
        5
 72
     2
 10
274.676300688743
 20
14.15326939093671
 40
0.333333333333087
 50
0.0
 51
180.0
 73
     1
 72
     1
 10
274.3429673554091
 20
14.15326939093671
 11
274.3429673554091
 21
10.8467306090632
 72
     2
 10
274.676300688743
 20
10.8467306090632
 40
0.3333333333339397
 50
180.0
 51
360.0
 73
     1
 72
     1
 10
275.0096340220761
 20
10.8467306090632
 11
275.0096340220761
 21
11.0392519172633
 72
     1
 10
275.0096340220761
 20
11.0392519172633
 11
275.0096340220761
 21
14.15326939093671
 97
        5
330
8D
330
66
330
8C
330
67
330
68
 75
     0
 76
     1
 98
        1
 10
0.0
 20
0.0
  0
HATCH
  5
A1
330
47
100
AcDbEntity
  8
1
  6
Continuous
 62
     7
100
AcDbHatch
 10
0.0
 20
0.0
 30
0.0
210
0.0
220
0.0
230
1.0
  2
SOLID
 70
     1
 71
     1
 91
        1
 92
        1
 93
        7
 72
     2
 10
276.0096340220761
 20
14.9225001601674
 40
0.3333333333329733
 50
0.0
 51
180.0
 73
     1
 72
     1
 10
275.676300688743
 20
14.9225001601674
 11
275.676300688743
 21
10.27002114803261
 72
     2
 10
276.3429673554091
 20
10.2700211480327
 40
0.6666666666660603
 50
180.0000000000078
 51
240.0183606311834
 73
     1
 72
     1
 10
276.0098190530831
 20
9.692564090666906
 11
278.176393204246
 21
8.442617464995806
 72
     2
 10
278.3429673554091
 20
8.731345993678701
 40
0.3333333333333141
 50
240.0183606311663
 51
420.0183606310309
 73
     1
 72
     1
 10
278.5095415065731
 20
9.020074522361597
 11
276.3429673554091
 21
10.2700211480327
 72
     1
 10
276.3429673554091
 20
10.2700211480327
 11
276.3429673554091
 21
14.9225001601674
 97
        7
330
8F
330
6C
330
98
330
69
330
8E
330
6A
330
6B
 75
     0
 76
     1
 98
        1
 10
0.0
 20
0.0
  0
HATCH
  5
A2
330
47
100
AcDbEntity
  8
1
  6
Continuous
 62
     7
100
AcDbHatch
 10
0.0
 20
0.0
 30
0.0
210
0.0
220
0.0
230
1.0
  2
SOLID
 70
     1
 71
     1
 91
        1
 92
        1
 93
       16
 72
     2
 10
280.0780011429341
 20
15.7312173120346
 40
0.2649662124749739
 50
210.0000000000192
 51
360.0
 73
     0
 72
     1
 10
280.3429673554091
 20
15.7312173120346
 11
280.3429673554091
 21
9.308269070601796
 72
     2
 10
280.0096340220761
 20
9.308269070601796
 40
0.333333333333087
 50
0.0
 51
180.0
 73
     0
 72
     1
 10
279.676300688743
 20
9.308269070601796
 11
279.676300688743
 21
12.5
 72
     1
 10
279.676300688743
 20
12.5
 11
279.676300688743
 21
14.23205080756881
 72
     1
 10
279.676300688743
 20
14.23205080756881
 11
278.8206382560401
 21
12.75
 72
     2
 10
278.676300688743
 20
12.83333333333331
 40
0.1666666666671286
 50
30.00000000004597
 51
150.0000000001006
 73
     0
 72
     1
 10
278.5319631214451
 20
12.75
 11
277.676300688743
 21
14.23205080756881
 72
     1
 10
277.676300688743
 20
14.23205080756881
 11
277.676300688743
 21
12.5
 72
     1
 10
277.676300688743
 20
12.5
 11
277.676300688743
 21
10.84758507263291
 72
     2
 10
277.3429673554091
 20
10.84758507263291
 40
0.3333333333329733
 50
0.0
 51
180.0
 73
     0
 72
     1
 10
277.0096340220761
 20
10.84758507263291
 11
277.0096340220761
 21
12.5
 72
     1
 10
277.0096340220761
 20
12.5
 11
277.0096340220761
 21
15.7312173120346
 72
     2
 10
277.274600234551
 20
15.7312173120346
 40
0.2649662124752362
 50
180.0
 51
329.9999999999746
 73
     0
 72
     1
 10
277.504067705699
 20
15.86370041827232
 11
278.676300688743
 21
13.83333333333331
 72
     1
 10
278.676300688743
 20
13.83333333333331
 11
279.848533671786
 21
15.86370041827232
 97
       16
330
72
330
93
330
73
330
71
330
92
330
70
330
78
330
79
330
99
330
7A
330
7B
330
6F
330
91
330
6E
330
90
330
6D
 75
     0
 76
     1
 98
        1
 10
0.0
 20
0.0
  0
ENDBLK
  5
49
330
47
100
AcDbEntity
  8
0
100
AcDbBlockEnd
  0
BLOCK
  5
4C
330
4A
100
AcDbEntity
  8
0
100
AcDbBlockBegin
  2
A4_oriz
 70
     0
 10
297.0000000000001
 20
0.0
 30
0.0
  3
A4_oriz
  1

  0
INSERT
  5
4B
330
4A
100
AcDbEntity
  8
1
100
AcDbBlockReference
  2
_formato_A4
 10
297.0000000000001
 20
0.0
 30
0.0
  0
ENDBLK
  5
4D
330
4A
100
AcDbEntity
  8
0
100
AcDbBlockEnd
  0
BLOCK
  5
177
330
16F
100
AcDbEntity
  8
0
100
AcDbBlockBegin
  2
*D3
 70
     1
 10
0.0
 20
0.0
 30
0.0
  3
*D3
  1

  0
LINE
  5
170
330
16F
100
AcDbEntity
  8
1
  6
Continuous
 62
     2
100
AcDbLine
 10
40.61876729147753
 20
58.351145963639
 30
0.0
 11
131.6218645754101
 21
58.351145963639
 31
0.0
  0
LINE
  5
171
330
16F
100
AcDbEntity
  8
1
  6
Continuous
 62
     2
100
AcDbLine
 10
131.6218645754101
 20
83.20618803085083
 30
0.0
 11
131.6218645754101
 21
57.351145963639
 31
0.0
  0
LINE
  5
172
330
16F
100
AcDbEntity
  8
1
  6
Continuous
 62
     2
100
AcDbLine
 10
40.61876729147753
 20
83.20618803085083
 30
0.0
 11
40.61876729147753
 21
57.351145963639
 31
0.0
  0
SOLID
  5
173
330
16F
100
AcDbEntity
  8
1
 62
     2
100
AcDbTrace
 10
43.61876729147753
 20
58.74610345640119
 30
0.0
 11
43.61876729147753
 21
57.95618847087681
 31
0.0
 12
40.61876729147753
 22
58.351145963639
 32
0.0
 13
40.61876729147753
 23
58.351145963639
 33
0.0
  0
SOLID
  5
174
330
16F
100
AcDbEntity
  8
1
 62
     2
100
AcDbTrace
 10
128.6218645754101
 20
57.95618847087681
 30
0.0
 11
128.6218645754101
 21
58.74610345640119
 31
0.0
 12
131.6218645754101
 22
58.351145963639
 32
0.0
 13
131.6218645754101
 23
58.351145963639
 33
0.0
  0
MTEXT
  5
176
330
16F
100
AcDbEntity
  8
1
 62
     4
100
AcDbMText
 10
84.32031593344375
 20
60.351145963639
 30
0.0
 40
3.0
 41
0.0
 71
     7
 72
     1
  1
91
  7
CONVERTER_12
 11
0.9999999999970619
 21
2.424068405545306E-6
 31
0.0
 73
     1
 44
0.60024009603842
  0
ENDBLK
  5
178
330
16F
100
AcDbEntity
  8
0
100
AcDbBlockEnd
  0
BLOCK
  5
182
330
17B
100
AcDbEntity
  8
0
100
AcDbBlockBegin
  2
*D4
 70
     1
 10
0.0
 20
0.0
 30
0.0
  3
*D4
  1

  0
LINE
  5
17C
330
17B
100
AcDbEntity
  8
1
  6
Continuous
 62
     2
100
AcDbLine
 10
89.12031593344443
 20
158.19645481858
 30
0.0
 11
109.1203159334444
 21
158.19645481858
 31
0.0
  0
LINE
  5
17D
330
17B
100
AcDbEntity
  8
1
  6
Continuous
 62
     2
100
AcDbLine
 10
109.1203159334444
 20
151.6061880308509
 30
0.0
 11
109.1203159334444
 21
159.19645481858
 31
0.0
  0
LINE
  5
17E
330
17B
100
AcDbEntity
  8
1
  6
Continuous
 62
     2
100
AcDbLine
 10
89.12031593344443
 20
151.6061880308508
 30
0.0
 11
89.12031593344443
 21
159.19645481858
 31
0.0
  0
SOLID
  5
17F
330
17B
100
AcDbEntity
  8
1
 62
     2
100
AcDbTrace
 10
92.12031593344443
 20
158.5914123113422
 30
0.0
 11
92.12031593344443
 21
157.8014973258178
 31
0.0
 12
89.12031593344443
 22
158.19645481858
 32
0.0
 13
89.12031593344443
 23
158.19645481858
 33
0.0
  0
SOLID
  5
180
330
17B
100
AcDbEntity
  8
1
 62
     2
100
AcDbTrace
 10
106.1203159334444
 20
157.8014973258178
 30
0.0
 11
106.1203159334444
 21
158.5914123113422
 31
0.0
 12
109.1203159334444
 22
158.19645481858
 32
0.0
 13
109.1203159334444
 23
158.19645481858
 33
0.0
  0
MTEXT
  5
181
330
17B
100
AcDbEntity
  8
1
 62
     4
100
AcDbMText
 10
96.36031593345166
 20
160.1964488553717
 30
0.0
 40
3.0
 41
0.0
 71
     7
 72
     1
  1
\C4;M\C4;20
  7
CONVERTER_12
 11
0.9999999999970619
 21
2.424068405545306E-6
 31
0.0
 73
     1
 44
0.60024009603842
  0
ENDBLK
  5
183
330
17B
100
AcDbEntity
  8
0
100
AcDbBlockEnd
  0
BLOCK
  5
18D
330
186
100
AcDbEntity
  8
0
100
AcDbBlockBegin
  2
*D5
 70
     1
 10
0.0
 20
0.0
 30
0.0
  3
*D5
  1

  0
LINE
  5
187
330
186
100
AcDbEntity
  8
1
  6
Continuous
 62
     2
100
AcDbLine
 10
63.12031593344466
 20
158.2927674609711
 30
0.0
 11
83.12031593344466
 21
158.2927674609711
 31
0.0
  0
LINE
  5
188
330
186
100
AcDbEntity
  8
1
  6
Continuous
 62
     2
100
AcDbLine
 10
83.12031593344466
 20
151.6061880308509
 30
0.0
 11
83.12031593344466
 21
159.2927674609711
 31
0.0
  0
LINE
  5
189
330
186
100
AcDbEntity
  8
1
  6
Continuous
 62
     2
100
AcDbLine
 10
63.12031593344466
 20
151.6061880308509
 30
0.0
 11
63.12031593344466
 21
159.2927674609711
 31
0.0
  0
SOLID
  5
18A
330
186
100
AcDbEntity
  8
1
 62
     2
100
AcDbTrace
 10
66.12031593344466
 20
158.6877249537333
 30
0.0
 11
66.12031593344466
 21
157.8978099682089
 31
0.0
 12
63.12031593344466
 22
158.2927674609711
 32
0.0
 13
63.12031593344466
 23
158.2927674609711
 33
0.0
  0
SOLID
  5
18B
330
186
100
AcDbEntity
  8
1
 62
     2
100
AcDbTrace
 10
80.12031593344466
 20
157.8978099682089
 30
0.0
 11
80.12031593344466
 21
158.6877249537333
 31
0.0
 12
83.12031593344466
 22
158.2927674609711
 32
0.0
 13
83.12031593344466
 23
158.2927674609711
 33
0.0
  0
MTEXT
  5
18C
330
186
100
AcDbEntity
  8
1
 62
     4
100
AcDbMText
 10
70.36031593345189
 20
160.2927614977628
 30
0.0
 40
3.0
 41
0.0
 71
     7
 72
     1
  1
\C4;M\C4;20
  7
CONVERTER_12
 11
0.9999999999970619
 21
2.424068405545306E-6
 31
0.0
 73
     1
 44
0.60024009603842
  0
ENDBLK
  5
18E
330
186
100
AcDbEntity
  8
0
100
AcDbBlockEnd
  0
BLOCK
  5
198
330
191
100
AcDbEntity
  8
0
100
AcDbBlockBegin
  2
*D6
 70
     1
 10
0.0
 20
0.0
 30
0.0
  3
*D6
  1

  0
LINE
  5
192
330
191
100
AcDbEntity
  8
1
  6
Continuous
 62
     2
100
AcDbLine
 10
73.12031593344432
 20
171.0298745466091
 30
0.0
 11
99.12031593344454
 21
171.0298745466091
 31
0.0
  0
LINE
  5
193
330
191
100
AcDbEntity
  8
1
  6
Continuous
 62
     2
100
AcDbLine
 10
73.12031593344432
 20
169.3061880308508
 30
0.0
 11
73.12031593344432
 21
172.0298745466091
 31
0.0
  0
LINE
  5
194
330
191
100
AcDbEntity
  8
1
  6
Continuous
 62
     2
100
AcDbLine
 10
99.12031593344454
 20
169.3061880308508
 30
0.0
 11
99.12031593344454
 21
172.0298745466091
 31
0.0
  0
SOLID
  5
195
330
191
100
AcDbEntity
  8
1
 62
     2
100
AcDbTrace
 10
76.12031593344432
 20
171.4248320393713
 30
0.0
 11
76.12031593344432
 21
170.6349170538469
 31
0.0
 12
73.12031593344432
 22
171.0298745466091
 32
0.0
 13
73.12031593344432
 23
171.0298745466091
 33
0.0
  0
SOLID
  5
196
330
191
100
AcDbEntity
  8
1
 62
     2
100
AcDbTrace
 10
96.12031593344454
 20
170.6349170538469
 30
0.0
 11
96.12031593344454
 21
171.4248320393713
 31
0.0
 12
99.12031593344454
 22
171.0298745466091
 32
0.0
 13
99.12031593344454
 23
171.0298745466091
 33
0.0
  0
MTEXT
  5
197
330
191
100
AcDbEntity
  8
1
 62
     4
100
AcDbMText
 10
83.87031593344443
 20
173.0298745466091
 30
0.0
 40
3.0
 41
0.0
 71
     7
 72
     1
  1
26
  7
CONVERTER_12
 11
0.9999999999970619
 21
2.424068405545306E-6
 31
0.0
 73
     1
 44
0.60024009603842
  0
ENDBLK
  5
199
330
191
100
AcDbEntity
  8
0
100
AcDbBlockEnd
  0
BLOCK
  5
1A3
330
19C
100
AcDbEntity
  8
0
100
AcDbBlockBegin
  2
*D7
 70
     1
 10
0.0
 20
0.0
 30
0.0
  3
*D7
  1

  0
LINE
  5
19D
330
19C
100
AcDbEntity
  8
1
  6
Continuous
 62
     2
100
AcDbLine
 10
49.62031593344364
 20
71.03514197096763
 30
0.0
 11
122.6203159334439
 21
71.03514197096763
 31
0.0
  0
LINE
  5
19E
330
19C
100
AcDbEntity
  8
1
  6
Continuous
 62
     2
100
AcDbLine
 10
122.6203159334439
 20
80.85191084279393
 30
0.0
 11
122.6203159334439
 21
70.03514197096763
 31
0.0
  0
LINE
  5
19F
330
19C
100
AcDbEntity
  8
1
  6
Continuous
 62
     2
100
AcDbLine
 10
49.62031593344364
 20
80.85191084279393
 30
0.0
 11
49.62031593344364
 21
70.03514197096763
 31
0.0
  0
SOLID
  5
1A0
330
19C
100
AcDbEntity
  8
1
 62
     2
100
AcDbTrace
 10
52.62031593344364
 20
71.43009946372982
 30
0.0
 11
52.62031593344364
 21
70.64018447820544
 31
0.0
 12
49.62031593344364
 22
71.03514197096763
 32
0.0
 13
49.62031593344364
 23
71.03514197096763
 33
0.0
  0
SOLID
  5
1A1
330
19C
100
AcDbEntity
  8
1
 62
     2
100
AcDbTrace
 10
119.6203159334439
 20
70.64018447820544
 30
0.0
 11
119.6203159334439
 21
71.43009946372982
 31
0.0
 12
122.6203159334439
 22
71.03514197096763
 32
0.0
 13
122.6203159334439
 23
71.03514197096763
 33
0.0
  0
MTEXT
  5
1A2
330
19C
100
AcDbEntity
  8
1
 62
     4
100
AcDbMText
 10
83.87031593344386
 20
73.03514197096763
 30
0.0
 40
3.0
 41
0.0
 71
     7
 72
     1
  1
73
  7
CONVERTER_12
 11
0.9999999999970619
 21
2.424068405545306E-6
 31
0.0
 73
     1
 44
0.60024009603842
  0
ENDBLK
  5
1A4
330
19C
100
AcDbEntity
  8
0
100
AcDbBlockEnd
  0
BLOCK
  5
1AE
330
1A7
100
AcDbEntity
  8
0
100
AcDbBlockBegin
  2
*D8
 70
     1
 10
0.0
 20
0.0
 30
0.0
  3
*D8
  1

  0
LINE
  5
1A8
330
1A7
100
AcDbEntity
  8
1
  6
Continuous
 62
     2
100
AcDbLine
 10
261.0918137027601
 20
151.1061880308612
 30
0.0
 11
261.0918137027601
 21
81.10618803085083
 31
0.0
  0
LINE
  5
1A9
330
1A7
100
AcDbEntity
  8
1
  6
Continuous
 62
     2
100
AcDbLine
 10
216.0894917857601
 20
151.1061880308612
 30
0.0
 11
262.0918137027601
 21
151.1061880308612
 31
0.0
  0
LINE
  5
1AA
330
1A7
100
AcDbEntity
  8
1
  6
Continuous
 62
     2
100
AcDbLine
 10
236.18949178576
 20
81.10618803085083
 30
0.0
 11
262.0918137027601
 21
81.10618803085083
 31
0.0
  0
SOLID
  5
1AB
330
1A7
100
AcDbEntity
  8
1
 62
     2
100
AcDbTrace
 10
261.4867711955222
 20
148.1061880308612
 30
0.0
 11
260.6968562099979
 21
148.1061880308612
 31
0.0
 12
261.0918137027601
 22
151.1061880308612
 32
0.0
 13
261.0918137027601
 23
151.1061880308612
 33
0.0
  0
SOLID
  5
1AC
330
1A7
100
AcDbEntity
  8
1
 62
     2
100
AcDbTrace
 10
260.6968562099979
 20
84.10618803085083
 30
0.0
 11
261.4867711955222
 21
84.10618803085083
 31
0.0
 12
261.0918137027601
 22
81.10618803085083
 32
0.0
 13
261.0918137027601
 23
81.10618803085083
 33
0.0
  0
MTEXT
  5
1AD
330
1A7
100
AcDbEntity
  8
1
 62
     4
100
AcDbMText
 10
259.0918137027601
 20
113.856188030856
 30
0.0
 40
3.0
 41
0.0
 71
     7
 72
     1
  1
70
  7
CONVERTER_12
 11
0.0
 21
1.0
 31
0.0
 73
     1
 44
0.60024009603842
  0
ENDBLK
  5
1AF
330
1A7
100
AcDbEntity
  8
0
100
AcDbBlockEnd
  0
BLOCK
  5
1B9
330
1B2
100
AcDbEntity
  8
0
100
AcDbBlockBegin
  2
*D9
 70
     1
 10
0.0
 20
0.0
 30
0.0
  3
*D9
  1

  0
LINE
  5
1B3
330
1B2
100
AcDbEntity
  8
1
  6
Continuous
 62
     2
100
AcDbLine
 10
194.0894917857601
 20
71.26261442384202
 30
0.0
 11
237.0894917857601
 21
71.26261442384202
 31
0.0
  0
LINE
  5
1B4
330
1B2
100
AcDbEntity
  8
1
  6
Continuous
 62
     2
100
AcDbLine
 10
237.0894917857601
 20
80.85191122992916
 30
0.0
 11
237.0894917857601
 21
70.26261442384202
 31
0.0
  0
LINE
  5
1B5
330
1B2
100
AcDbEntity
  8
1
  6
Continuous
 62
     2
100
AcDbLine
 10
194.0894917857601
 20
80.85191122992916
 30
0.0
 11
194.0894917857601
 21
70.26261442384202
 31
0.0
  0
SOLID
  5
1B6
330
1B2
100
AcDbEntity
  8
1
 62
     2
100
AcDbTrace
 10
197.0894917857601
 20
71.65757191660421
 30
0.0
 11
197.0894917857601
 21
70.86765693107984
 31
0.0
 12
194.0894917857601
 22
71.26261442384202
 32
0.0
 13
194.0894917857601
 23
71.26261442384202
 33
0.0
  0
SOLID
  5
1B7
330
1B2
100
AcDbEntity
  8
1
 62
     2
100
AcDbTrace
 10
234.0894917857601
 20
70.86765693107984
 30
0.0
 11
234.0894917857601
 21
71.65757191660421
 31
0.0
 12
237.0894917857601
 22
71.26261442384202
 32
0.0
 13
237.0894917857601
 23
71.26261442384202
 33
0.0
  0
MTEXT
  5
1B8
330
1B2
100
AcDbEntity
  8
1
 62
     4
100
AcDbMText
 10
213.3394917857601
 20
73.26261442384202
 30
0.0
 40
3.0
 41
0.0
 71
     7
 72
     1
  1
43
  7
CONVERTER_12
 11
0.9999999999970619
 21
2.424068405545306E-6
 31
0.0
 73
     1
 44
0.60024009603842
  0
ENDBLK
  5
1BA
330
1B2
100
AcDbEntity
  8
0
100
AcDbBlockEnd
  0
ENDSEC
  0
SECTION
  2
ENTITIES
  0
INSERT
  5
4E
330
1F
100
AcDbEntity
  8
0
100
AcDbBlockReference
  2
A4_oriz
 10
297.0000000000001
 20
0.0
 30
0.0
  0
LINE
  5
A3
330
1F
100
AcDbEntity
  8
1
  6
DASH_CENTER
 62
     2
100
AcDbLine
 10
215.5894917857607
 20
66.83625658048805
 30
0.0
 11
215.5894917857607
 21
72.20618803085091
 31
0.0
  0
LINE
  5
A4
330
1F
100
AcDbEntity
  8
1
  6
DASH_CENTER
 62
     2
100
AcDbLine
 10
86.12031593344443
 20
54.13625658048807
 30
0.0
 11
86.12031593344443
 21
59.50618803085092
 31
0.0
  0
LINE
  5
A5
330
1F
100
AcDbEntity
  8
1
  6
DASH_CENTER
 62
     2
100
AcDbLine
 10
86.12031593344443
 20
66.83625658048805
 30
0.0
 11
86.12031593344443
 21
72.20618803085091
 31
0.0
  0
LINE
  5
A6
330
1F
100
AcDbEntity
  8
1
  6
Continuous
 62
     2
100
AcDbLine
 10
215.4894917857602
 20
151.1061880308612
 30
0.0
 11
215.68949178576
 21
151.1061880308612
 31
0.0
  0
LINE
  5
A7
330
1F
100
AcDbEntity
  8
1
  6
Continuous
 62
     7
100
AcDbLine
 10
237.0894917857601
 20
81.35191122992916
 30
0.0
 11
236.884320121016
 21
93.10618803085225
 31
0.0
  0
LINE
  5
A8
330
1F
100
AcDbEntity
  8
1
  6
Continuous
 62
     7
100
AcDbLine
 10
235.5437940268711
 20
112.6061880308523
 30
0.0
 11
235.0201420790251
 21
142.6061880308523
 31
0.0
  0
LINE
  5
A9
330
1F
100
AcDbEntity
  8
1
  6
Continuous
 62
     7
100
AcDbLine
 10
236.570128952308
 20
111.1061880308523
 30
0.0
 11
235.5437940268711
 21
112.6061880308523
 31
0.0
  0
LINE
  5
AA
330
1F
100
AcDbEntity
  8
1
  6
Continuous
 62
     7
100
AcDbLine
 10
235.9313223617631
 20
147.703393092643
 30
0.0
 11
235.9941118096762
 21
144.1061880308523
 31
0.0
  0
LINE
  5
AB
330
1F
100
AcDbEntity
  8
1
  6
Continuous
 62
     7
100
AcDbLine
 10
235.0201420790251
 20
142.6061880308523
 30
0.0
 11
235.9941118096762
 21
144.1061880308523
 31
0.0
  0
LINE
  5
AC
330
1F
100
AcDbEntity
  8
1
  6
Continuous
 62
     7
100
AcDbLine
 10
236.570128952308
 20
111.1061880308523
 30
0.0
 11
236.6748593418771
 21
105.1061880308523
 31
0.0
  0
LINE
  5
AD
330
1F
100
AcDbEntity
  8
1
  6
Continuous
 62
     7
100
AcDbLine
 10
217.0894917857601
 20
93.10618803085225
 30
0.0
 11
236.884320121016
 21
93.10618803085225
 31
0.0
  0
LINE
  5
AE
330
1F
100
AcDbEntity
  8
1
  6
Continuous
 62
     7
100
AcDbLine
 10
235.8579851955791
 20
94.60618803085225
 30
0.0
 11
218.1164917857601
 21
94.60618803085225
 31
0.0
  0
LINE
  5
AF
330
1F
100
AcDbEntity
  8
1
  6
Continuous
 62
     7
100
AcDbLine
 10
217.0894917857601
 20
96.10618803085225
 30
0.0
 11
236.8319549262311
 21
96.10618803085225
 31
0.0
  0
LINE
  5
B0
330
1F
100
AcDbEntity
  8
1
  6
Continuous
 62
     7
100
AcDbLine
 10
235.8056200007951
 20
97.60618803085225
 30
0.0
 11
218.1164917857601
 21
97.60618803085225
 31
0.0
  0
LINE
  5
B1
330
1F
100
AcDbEntity
  8
1
  6
Continuous
 62
     7
100
AcDbLine
 10
217.0894917857601
 20
99.10618803085225
 30
0.0
 11
236.779589731446
 21
99.10618803085225
 31
0.0
  0
LINE
  5
B2
330
1F
100
AcDbEntity
  8
1
  6
Continuous
 62
     7
100
AcDbLine
 10
235.75325480601
 20
100.6061880308523
 30
0.0
 11
218.1164917857601
 21
100.6061880308523
 31
0.0
  0
LINE
  5
B3
330
1F
100
AcDbEntity
  8
1
  6
Continuous
 62
     7
100
AcDbLine
 10
217.0894917857601
 20
102.1061880308523
 30
0.0
 11
236.727224536662
 21
102.1061880308523
 31
0.0
  0
LINE
  5
B4
330
1F
100
AcDbEntity
  8
1
  6
Continuous
 62
     7
100
AcDbLine
 10
235.7008896112251
 20
103.6061880308523
 30
0.0
 11
218.1164917857601
 21
103.6061880308523
 31
0.0
  0
LINE
  5
B5
330
1F
100
AcDbEntity
  8
1
  6
Continuous
 62
     4
100
AcDbLine
 10
217.0894917857601
 20
93.10618803085225
 30
0.0
 11
218.1164917857601
 21
94.60618803085225
 31
0.0
  0
LINE
  5
B6
330
1F
100
AcDbEntity
  8
1
  6
Continuous
 62
     7
100
AcDbLine
 10
217.0894917857601
 20
93.10618803085225
 30
0.0
 11
217.0894917857601
 21
105.1061880308523
 31
0.0
  0
LINE
  5
B7
330
1F
100
AcDbEntity
  8
1
  6
Continuous
 62
     4
100
AcDbLine
 10
218.1164917857601
 20
94.60618803085225
 30
0.0
 11
217.0894917857601
 21
96.10618803085225
 31
0.0
  0
LINE
  5
B8
330
1F
100
AcDbEntity
  8
1
  6
Continuous
 62
     4
100
AcDbLine
 10
217.0894917857601
 20
96.10618803085225
 30
0.0
 11
218.1164917857601
 21
97.60618803085225
 31
0.0
  0
LINE
  5
B9
330
1F
100
AcDbEntity
  8
1
  6
Continuous
 62
     4
100
AcDbLine
 10
218.1164917857601
 20
97.60618803085225
 30
0.0
 11
217.0894917857601
 21
99.10618803085225
 31
0.0
  0
LINE
  5
BA
330
1F
100
AcDbEntity
  8
1
  6
Continuous
 62
     4
100
AcDbLine
 10
217.0894917857601
 20
99.10618803085225
 30
0.0
 11
218.1164917857601
 21
100.6061880308523
 31
0.0
  0
LINE
  5
BB
330
1F
100
AcDbEntity
  8
1
  6
Continuous
 62
     4
100
AcDbLine
 10
218.1164917857601
 20
100.6061880308523
 30
0.0
 11
217.0894917857601
 21
102.1061880308523
 31
0.0
  0
LINE
  5
BC
330
1F
100
AcDbEntity
  8
1
  6
Continuous
 62
     7
100
AcDbLine
 10
236.884320121016
 20
93.10618803085225
 30
0.0
 11
235.8579851955791
 21
94.60618803085225
 31
0.0
  0
LINE
  5
BD
330
1F
100
AcDbEntity
  8
1
  6
Continuous
 62
     7
100
AcDbLine
 10
235.8579851955791
 20
94.60618803085225
 30
0.0
 11
236.8319549262311
 21
96.10618803085225
 31
0.0
  0
LINE
  5
BE
330
1F
100
AcDbEntity
  8
1
  6
Continuous
 62
     7
100
AcDbLine
 10
236.8319549262311
 20
96.10618803085225
 30
0.0
 11
235.8056200007951
 21
97.60618803085225
 31
0.0
  0
LINE
  5
BF
330
1F
100
AcDbEntity
  8
1
  6
Continuous
 62
     7
100
AcDbLine
 10
235.8056200007951
 20
97.60618803085225
 30
0.0
 11
236.779589731446
 21
99.10618803085225
 31
0.0
  0
LINE
  5
C0
330
1F
100
AcDbEntity
  8
1
  6
Continuous
 62
     7
100
AcDbLine
 10
236.779589731446
 20
99.10618803085225
 30
0.0
 11
235.75325480601
 21
100.6061880308523
 31
0.0
  0
LINE
  5
C1
330
1F
100
AcDbEntity
  8
1
  6
Continuous
 62
     7
100
AcDbLine
 10
235.75325480601
 20
100.6061880308523
 30
0.0
 11
236.727224536662
 21
102.1061880308523
 31
0.0
  0
LINE
  5
C2
330
1F
100
AcDbEntity
  8
1
  6
Continuous
 62
     7
100
AcDbLine
 10
236.727224536662
 20
102.1061880308523
 30
0.0
 11
235.7008896112251
 21
103.6061880308523
 31
0.0
  0
LINE
  5
C3
330
1F
100
AcDbEntity
  8
1
  6
Continuous
 62
     7
100
AcDbLine
 10
235.7008896112251
 20
103.6061880308523
 30
0.0
 11
236.6748593418771
 21
105.1061880308523
 31
0.0
  0
LINE
  5
C4
330
1F
100
AcDbEntity
  8
0
  6
Continuous
 62
     7
100
AcDbLine
 10
237.0724595894382
 20
81.35004256809344
 30
0.0
 11
237.0894917857601
 21
81.35191122992916
 31
0.0
  0
LINE
  5
C5
330
1F
100
AcDbEntity
  8
0
  6
Continuous
 62
     7
100
AcDbLine
 10
237.0724595894382
 20
81.35004256809344
 30
0.0
 11
235.68949178576
 21
81.10618803085083
 31
0.0
  0
LINE
  5
C6
330
1F
100
AcDbEntity
  8
1
  6
Continuous
 62
     7
100
AcDbLine
 10
122.381687456335
 20
93.10618803085083
 30
0.0
 11
49.85894441055245
 21
93.10618803085083
 31
0.0
  0
LINE
  5
C7
330
1F
100
AcDbEntity
  8
1
  6
Continuous
 62
     7
100
AcDbLine
 10
50.06750785442046
 20
105.1061880308508
 30
0.0
 11
122.173124012467
 21
105.1061880308508
 31
0.0
  0
LINE
  5
C8
330
1F
100
AcDbEntity
  8
1
  6
Continuous
 62
     7
100
AcDbLine
 10
121.1990434171671
 20
103.6061880308508
 30
0.0
 11
51.04158844972039
 21
103.6061880308508
 31
0.0
  0
LINE
  5
C9
330
1F
100
AcDbEntity
  8
1
  6
Continuous
 62
     7
100
AcDbLine
 10
122.2252648734341
 20
102.1061880308508
 30
0.0
 11
50.01536699345343
 21
102.1061880308508
 31
0.0
  0
LINE
  5
CA
330
1F
100
AcDbEntity
  8
1
  6
Continuous
 62
     7
100
AcDbLine
 10
50.98944758875348
 20
100.6061880308508
 30
0.0
 11
121.251184278134
 21
100.6061880308508
 31
0.0
  0
LINE
  5
CB
330
1F
100
AcDbEntity
  8
1
  6
Continuous
 62
     7
100
AcDbLine
 10
122.2774057344011
 20
99.10618803085083
 30
0.0
 11
49.96322613248651
 21
99.10618803085083
 31
0.0
  0
LINE
  5
CC
330
1F
100
AcDbEntity
  8
1
  6
Continuous
 62
     7
100
AcDbLine
 10
50.93730672778645
 20
97.60618803085083
 30
0.0
 11
121.3033251391011
 21
97.60618803085083
 31
0.0
  0
LINE
  5
CD
330
1F
100
AcDbEntity
  8
1
  6
Continuous
 62
     7
100
AcDbLine
 10
122.329546595368
 20
96.10618803085083
 30
0.0
 11
49.91108527151948
 21
96.10618803085083
 31
0.0
  0
LINE
  5
CE
330
1F
100
AcDbEntity
  8
1
  6
Continuous
 62
     7
100
AcDbLine
 10
50.88516586681953
 20
94.60618803085083
 30
0.0
 11
121.3554660000681
 21
94.60618803085083
 31
0.0
  0
LINE
  5
CF
330
1F
100
AcDbEntity
  8
1
  6
Continuous
 62
     4
100
AcDbLine
 10
51.04158844972039
 20
103.6061880308508
 30
0.0
 11
50.06750785442046
 21
105.1061880308508
 31
0.0
  0
LINE
  5
D0
330
1F
100
AcDbEntity
  8
1
  6
Continuous
 62
     4
100
AcDbLine
 10
50.01536699345343
 20
102.1061880308508
 30
0.0
 11
51.04158844972039
 21
103.6061880308508
 31
0.0
  0
LINE
  5
D1
330
1F
100
AcDbEntity
  8
1
  6
Continuous
 62
     4
100
AcDbLine
 10
50.98944758875348
 20
100.6061880308508
 30
0.0
 11
50.01536699345343
 21
102.1061880308508
 31
0.0
  0
LINE
  5
D2
330
1F
100
AcDbEntity
  8
1
  6
Continuous
 62
     4
100
AcDbLine
 10
49.96322613248651
 20
99.10618803085083
 30
0.0
 11
50.98944758875348
 21
100.6061880308508
 31
0.0
  0
LINE
  5
D3
330
1F
100
AcDbEntity
  8
1
  6
Continuous
 62
     4
100
AcDbLine
 10
50.93730672778645
 20
97.60618803085083
 30
0.0
 11
49.96322613248651
 21
99.10618803085083
 31
0.0
  0
LINE
  5
D4
330
1F
100
AcDbEntity
  8
1
  6
Continuous
 62
     4
100
AcDbLine
 10
49.91108527151948
 20
96.10618803085083
 30
0.0
 11
50.93730672778645
 21
97.60618803085083
 31
0.0
  0
LINE
  5
D5
330
1F
100
AcDbEntity
  8
1
  6
Continuous
 62
     4
100
AcDbLine
 10
50.88516586681953
 20
94.60618803085083
 30
0.0
 11
49.91108527151948
 21
96.10618803085083
 31
0.0
  0
LINE
  5
D6
330
1F
100
AcDbEntity
  8
1
  6
Continuous
 62
     4
100
AcDbLine
 10
49.85894441055245
 20
93.10618803085083
 30
0.0
 11
50.88516586681953
 21
94.60618803085083
 31
0.0
  0
LINE
  5
D7
330
1F
100
AcDbEntity
  8
0
  6
Continuous
 62
     7
100
AcDbLine
 10
60.18625892575017
 20
151.1061880308508
 30
0.0
 11
112.0543729411371
 21
151.1061880308508
 31
0.0
  0
LINE
  5
D8
330
1F
100
AcDbEntity
  8
0
  6
Continuous
 62
     7
100
AcDbLine
 10
117.581459625629
 20
112.6061880308508
 30
0.0
 11
54.6591722412586
 21
112.6061880308508
 31
0.0
  0
LINE
  5
D9
330
1F
100
AcDbEntity
  8
0
  6
Continuous
 62
     7
100
AcDbLine
 10
114.1543082500921
 20
111.1061880308508
 30
0.0
 11
58.08632361679565
 21
111.1061880308508
 31
0.0
  0
LINE
  5
DA
330
1F
100
AcDbEntity
  8
0
  6
Continuous
 62
     7
100
AcDbLine
 10
121.2267526174071
 20
81.10618803085083
 30
0.0
 11
51.01387924948062
 21
81.10618803085083
 31
0.0
  0
LINE
  5
DB
330
1F
100
AcDbEntity
  8
0
  6
Continuous
 62
     7
100
AcDbLine
 10
51.01387924948062
 20
81.10618803085083
 30
0.0
 11
49.99826609457273
 21
81.28526803202391
 31
0.0
  0
LINE
  5
DC
330
1F
100
AcDbEntity
  8
0
  6
Continuous
 62
     7
100
AcDbLine
 10
57.23287380456566
 20
148.6281293475498
 30
0.0
 11
50.0853129491552
 21
108.1061880308508
 31
0.0
  0
LINE
  5
DD
330
1F
100
AcDbEntity
  8
0
  6
Continuous
 62
     7
100
AcDbLine
 10
108.3561514311875
 20
144.1061880308517
 30
0.0
 11
63.88448043570008
 21
144.1061880308517
 31
0.0
  0
LINE
  5
DE
330
1F
100
AcDbEntity
  8
0
  6
Continuous
 62
     7
100
AcDbLine
 10
54.6591722412586
 20
112.6061880308508
 30
0.0
 11
59.93022389480893
 21
142.6061880308508
 31
0.0
  0
LINE
  5
DF
330
1F
100
AcDbEntity
  8
0
  6
Continuous
 62
     7
100
AcDbLine
 10
49.62031593344364
 20
81.35191084279393
 30
0.0
 11
50.0853129491552
 21
108.1061880308508
 31
0.0
  0
LINE
  5
E0
330
1F
100
AcDbEntity
  8
0
  6
Continuous
 62
     7
100
AcDbLine
 10
49.99826609457273
 20
81.28526803202391
 30
0.0
 11
49.62031593344364
 21
81.35191084279393
 31
0.0
  0
LINE
  5
E1
330
1F
100
AcDbEntity
  8
1
  6
DASH_CENTER
 62
     2
100
AcDbLine
 10
215.5894917857601
 20
157.9126757692415
 30
0.0
 11
215.5894917857601
 21
78.13514197096771
 31
0.0
  0
LINE
  5
E2
102
{ACAD_REACTORS
330
1BD
102
}
330
1F
100
AcDbEntity
  8
1
  6
Continuous
 62
     7
100
AcDbLine
 10
87.52031593344398
 20
85.77554953428884
 30
0.0
 11
87.52031593344398
 21
88.68254972648987
 31
0.0
  0
LINE
  5
E3
102
{ACAD_REACTORS
330
1BD
102
}
330
1F
100
AcDbEntity
  8
1
  6
Continuous
 62
     7
100
AcDbLine
 10
88.62026042414189
 20
86.06385087861776
 30
0.0
 11
87.82026042414194
 21
85.60231241707916
 31
0.0
  0
LINE
  5
E4
102
{ACAD_REACTORS
330
1BD
102
}
330
1F
100
AcDbEntity
  8
1
  6
Continuous
 62
     7
100
AcDbLine
 10
87.92031593344407
 20
86.12183154997805
 30
0.0
 11
88.42037144274607
 21
86.41032511303715
 31
0.0
  0
LINE
  5
E5
102
{ACAD_REACTORS
330
1BD
102
}
330
1F
100
AcDbEntity
  8
1
  6
Continuous
 62
     7
100
AcDbLine
 10
87.92031593344407
 20
87.02904963038947
 30
0.0
 11
87.92031593344407
 21
86.12183154997805
 31
0.0
  0
LINE
  5
E6
102
{ACAD_REACTORS
330
1BD
102
}
330
1F
100
AcDbEntity
  8
1
  6
Continuous
 62
     7
100
AcDbLine
 10
88.52031593344398
 20
87.02904963038927
 30
0.0
 11
87.92031593344407
 21
87.02904963038947
 31
0.0
  0
LINE
  5
E7
102
{ACAD_REACTORS
330
1BD
102
}
330
1F
100
AcDbEntity
  8
1
  6
Continuous
 62
     7
100
AcDbLine
 10
87.92031593344407
 20
87.42904963038936
 30
0.0
 11
88.52031593344398
 21
87.42904963038936
 31
0.0
  0
LINE
  5
E8
102
{ACAD_REACTORS
330
1BD
102
}
330
1F
100
AcDbEntity
  8
1
  6
Continuous
 62
     7
100
AcDbLine
 10
87.92031593344407
 20
88.33626771080054
 30
0.0
 11
87.92031593344407
 21
87.42904963038936
 31
0.0
  0
LINE
  5
E9
102
{ACAD_REACTORS
330
1BD
102
}
330
1F
100
AcDbEntity
  8
1
  6
Continuous
 62
     7
100
AcDbLine
 10
88.42037144274607
 20
88.04777414774176
 30
0.0
 11
87.92031593344407
 21
88.33626771080054
 31
0.0
  0
LINE
  5
EA
102
{ACAD_REACTORS
330
1BD
102
}
330
1F
100
AcDbEntity
  8
1
  6
Continuous
 62
     7
100
AcDbLine
 10
87.82026042414194
 20
88.85578684369966
 30
0.0
 11
88.62026042414189
 21
88.39424838216095
 31
0.0
  0
LINE
  5
EB
102
{ACAD_REACTORS
330
1C0
102
}
330
1F
100
AcDbEntity
  8
1
  6
Continuous
 62
     7
100
AcDbLine
 10
83.52031593344398
 20
86.23708799582747
 30
0.0
 11
83.52031593344398
 21
88.22101126495144
 31
0.0
  0
LINE
  5
EC
102
{ACAD_REACTORS
330
1C0
102
}
330
1F
100
AcDbEntity
  8
1
  6
Continuous
 62
     7
100
AcDbLine
 10
83.92031593344407
 20
88.22101126495144
 30
0.0
 11
83.92031593344407
 21
86.23708799582747
 31
0.0
  0
LINE
  5
ED
102
{ACAD_REACTORS
330
1BF
102
}
330
1F
100
AcDbEntity
  8
1
  6
Continuous
 62
     7
100
AcDbLine
 10
85.82037144274616
 20
84.79462010938676
 30
0.0
 11
84.52042695204821
 21
85.54458808478967
 31
0.0
  0
LINE
  5
EE
102
{ACAD_REACTORS
330
1BF
102
}
330
1F
100
AcDbEntity
  8
1
  6
Continuous
 62
     7
100
AcDbLine
 10
84.72031593344403
 20
85.89106231920894
 30
0.0
 11
86.02026042414198
 21
85.14109434380626
 31
0.0
  0
LINE
  5
EF
102
{ACAD_REACTORS
330
1BF
102
}
330
1F
100
AcDbEntity
  8
1
  6
Continuous
 62
     7
100
AcDbLine
 10
84.72031593344403
 20
88.68254972648987
 30
0.0
 11
84.72031593344403
 21
85.89106231920894
 31
0.0
  0
LINE
  5
F0
102
{ACAD_REACTORS
330
1BF
102
}
330
1F
100
AcDbEntity
  8
1
  6
Continuous
 62
     7
100
AcDbLine
 10
84.32031593344416
 20
85.89106231920894
 30
0.0
 11
84.32031593344416
 21
88.68254972648987
 31
0.0
  0
LINE
  5
F1
102
{ACAD_REACTORS
330
1BE
102
}
330
1F
100
AcDbEntity
  8
1
  6
Continuous
 62
     7
100
AcDbLine
 10
86.82365572327015
 20
89.24726988135276
 30
0.0
 11
86.12031593344412
 21
88.02904963038947
 31
0.0
  0
LINE
  5
F2
102
{ACAD_REACTORS
330
1BE
102
}
330
1F
100
AcDbEntity
  8
1
  6
Continuous
 62
     7
100
AcDbLine
 10
87.12031593344412
 20
85.31401107275056
 30
0.0
 11
87.12031593344412
 21
89.16778001761014
 31
0.0
  0
LINE
  5
F3
102
{ACAD_REACTORS
330
1BE
102
}
330
1F
100
AcDbEntity
  8
1
  6
Continuous
 62
     7
100
AcDbLine
 10
86.72031593344403
 20
88.26828011493066
 30
0.0
 11
86.72031593344403
 21
85.31401107275056
 31
0.0
  0
LINE
  5
F4
102
{ACAD_REACTORS
330
1BE
102
}
330
1F
100
AcDbEntity
  8
1
  6
Continuous
 62
     7
100
AcDbLine
 10
85.52031593344398
 20
86.23760067396904
 30
0.0
 11
85.52031593344398
 21
88.26828011493066
 31
0.0
  0
LINE
  5
F5
102
{ACAD_REACTORS
330
1BE
102
}
330
1F
100
AcDbEntity
  8
1
  6
Continuous
 62
     7
100
AcDbLine
 10
85.12031593344412
 20
89.16778001761014
 30
0.0
 11
85.12031593344412
 21
86.23760067396904
 31
0.0
  0
LINE
  5
F6
102
{ACAD_REACTORS
330
1BE
102
}
330
1F
100
AcDbEntity
  8
1
  6
Continuous
 62
     7
100
AcDbLine
 10
85.4169761436182
 20
89.24726988135276
 30
0.0
 11
86.12031593344412
 21
88.02904963038947
 31
0.0
  0
LINE
  5
F7
330
1F
100
AcDbEntity
  8
1
  6
Continuous
 62
     7
100
AcDbLine
 10
86.12031593344412
 20
84.22904963038934
 30
0.0
 11
81.07045476835927
 21
87.14243107178444
 31
0.0
  0
LINE
  5
F8
330
1F
100
AcDbEntity
  8
1
  6
Continuous
 62
     7
100
AcDbLine
 10
91.17017709852897
 20
87.14243107178444
 30
0.0
 11
86.12031593344412
 21
84.22904963038934
 31
0.0
  0
LINE
  5
F9
330
1F
100
AcDbEntity
  8
1
  6
Continuous
 62
     7
100
AcDbLine
 10
86.12031593344412
 20
90.22904963038934
 30
0.0
 11
91.17017709852897
 21
87.31566818899427
 31
0.0
  0
LINE
  5
FA
330
1F
100
AcDbEntity
  8
1
  6
Continuous
 62
     7
100
AcDbLine
 10
81.07045476835927
 20
87.31566818899427
 30
0.0
 11
86.12031593344412
 21
90.22904963038934
 31
0.0
  0
LINE
  5
FB
102
{ACAD_REACTORS
330
1BE
102
}
330
1F
100
AcDbEntity
  8
1
  6
Continuous
 62
     7
100
AcDbLine
 10
86.03371339306571
 20
87.37904963038946
 30
0.0
 11
85.52031593344398
 21
88.26828011493066
 31
0.0
  0
LINE
  5
FC
102
{ACAD_REACTORS
330
1BE
102
}
330
1F
100
AcDbEntity
  8
1
  6
Continuous
 62
     7
100
AcDbLine
 10
86.72031593344403
 20
88.26828011493066
 30
0.0
 11
86.20691847382253
 21
87.37904963038946
 31
0.0
  0
LINE
  5
FD
330
1F
100
AcDbEntity
  8
1
  6
Continuous
 62
     7
100
AcDbLine
 10
233.010310121217
 20
150.6500078482578
 30
0.0
 11
215.5894917857601
 21
151.1061880308612
 31
0.0
  0
LINE
  5
FE
330
1F
100
AcDbEntity
  8
1
  6
Continuous
 62
     7
100
AcDbLine
 10
217.0894917857601
 20
105.1061880308523
 30
0.0
 11
236.6748593418771
 21
105.1061880308523
 31
0.0
  0
LINE
  5
FF
330
1F
100
AcDbEntity
  8
1
  6
DASH_CENTER
 62
     2
100
AcDbLine
 10
86.12031593344409
 20
78.13514197096771
 30
0.0
 11
86.12031593344365
 21
83.5377288453632
 31
0.0
  0
LINE
  5
100
330
1F
100
AcDbEntity
  8
0
  6
Continuous
 62
     7
100
AcDbLine
 10
112.310407972079
 20
142.6061880308508
 30
0.0
 11
59.93022389480893
 21
142.6061880308508
 31
0.0
  0
LINE
  5
101
330
1F
100
AcDbEntity
  8
0
  6
Continuous
 62
     7
100
AcDbLine
 10
122.6203159334441
 20
81.35191084279393
 30
0.0
 11
122.2423657723151
 21
81.28526803202391
 31
0.0
  0
LINE
  5
102
330
1F
100
AcDbEntity
  8
0
  6
Continuous
 62
     7
100
AcDbLine
 10
122.1553189177321
 20
108.1061880308508
 30
0.0
 11
122.6203159334441
 21
81.35191084279393
 31
0.0
  0
LINE
  5
103
330
1F
100
AcDbEntity
  8
0
  6
Continuous
 62
     2
100
AcDbLine
 10
122.1553189177321
 20
108.1061880308508
 30
0.0
 11
121.789277580978
 21
108.1061880308508
 31
0.0
  0
LINE
  5
104
330
1F
100
AcDbEntity
  8
0
  6
Continuous
 62
     7
100
AcDbLine
 10
122.2423657723151
 20
81.28526803202391
 30
0.0
 11
121.2267526174071
 21
81.10618803085083
 31
0.0
  0
LINE
  5
105
330
1F
100
AcDbEntity
  8
1
  6
Continuous
 62
     4
100
AcDbLine
 10
121.3554660000681
 20
94.60618803085083
 30
0.0
 11
122.381687456335
 21
93.10618803085083
 31
0.0
  0
LINE
  5
106
330
1F
100
AcDbEntity
  8
1
  6
Continuous
 62
     4
100
AcDbLine
 10
122.329546595368
 20
96.10618803085083
 30
0.0
 11
121.3554660000681
 21
94.60618803085083
 31
0.0
  0
LINE
  5
107
330
1F
100
AcDbEntity
  8
1
  6
Continuous
 62
     4
100
AcDbLine
 10
121.3033251391011
 20
97.60618803085083
 30
0.0
 11
122.329546595368
 21
96.10618803085083
 31
0.0
  0
LINE
  5
108
330
1F
100
AcDbEntity
  8
1
  6
Continuous
 62
     4
100
AcDbLine
 10
122.2774057344011
 20
99.10618803085083
 30
0.0
 11
121.3033251391011
 21
97.60618803085083
 31
0.0
  0
LINE
  5
109
330
1F
100
AcDbEntity
  8
1
  6
Continuous
 62
     4
100
AcDbLine
 10
121.251184278134
 20
100.6061880308508
 30
0.0
 11
122.2774057344011
 21
99.10618803085083
 31
0.0
  0
LINE
  5
10A
330
1F
100
AcDbEntity
  8
1
  6
Continuous
 62
     4
100
AcDbLine
 10
122.2252648734341
 20
102.1061880308508
 30
0.0
 11
121.251184278134
 21
100.6061880308508
 31
0.0
  0
LINE
  5
10B
330
1F
100
AcDbEntity
  8
1
  6
Continuous
 62
     4
100
AcDbLine
 10
121.1990434171671
 20
103.6061880308508
 30
0.0
 11
122.2252648734341
 21
102.1061880308508
 31
0.0
  0
LINE
  5
10C
330
1F
100
AcDbEntity
  8
1
  6
Continuous
 62
     4
100
AcDbLine
 10
122.173124012467
 20
105.1061880308508
 30
0.0
 11
121.1990434171671
 21
103.6061880308508
 31
0.0
  0
LINE
  5
10D
330
1F
100
AcDbEntity
  8
0
  6
Continuous
 62
     7
100
AcDbLine
 10
112.310407972079
 20
142.6061880308508
 30
0.0
 11
117.581459625629
 21
112.6061880308508
 31
0.0
  0
LINE
  5
10E
330
1F
100
AcDbEntity
  8
0
  6
Continuous
 62
     7
100
AcDbLine
 10
122.1553189177321
 20
108.1061880308508
 30
0.0
 11
115.0077580623221
 21
148.6281293475498
 31
0.0
  0
LINE
  5
10F
330
1F
100
AcDbEntity
  8
1
  6
Continuous
 62
     4
100
AcDbLine
 10
218.1164917857601
 20
103.6061880308523
 30
0.0
 11
217.0894917857601
 21
105.1061880308523
 31
0.0
  0
LINE
  5
110
330
1F
100
AcDbEntity
  8
1
  6
Continuous
 62
     4
100
AcDbLine
 10
217.0894917857601
 20
102.1061880308523
 30
0.0
 11
218.1164917857601
 21
103.6061880308523
 31
0.0
  0
LINE
  5
111
330
1F
100
AcDbEntity
  8
1
  6
Continuous
 62
     4
100
AcDbLine
 10
213.06249178576
 20
103.6061880308523
 30
0.0
 11
214.0894917857601
 21
102.1061880308523
 31
0.0
  0
LINE
  5
112
330
1F
100
AcDbEntity
  8
1
  6
Continuous
 62
     4
100
AcDbLine
 10
214.0894917857601
 20
105.1061880308523
 30
0.0
 11
213.06249178576
 21
103.6061880308523
 31
0.0
  0
LINE
  5
113
330
1F
100
AcDbEntity
  8
1
  6
Continuous
 62
     7
100
AcDbLine
 10
194.504124229643
 20
105.1061880308523
 30
0.0
 11
214.0894917857601
 21
105.1061880308523
 31
0.0
  0
LINE
  5
114
330
1F
100
AcDbEntity
  8
1
  6
Continuous
 62
     7
100
AcDbLine
 10
215.5894917857601
 20
151.1061880308612
 30
0.0
 11
198.1686734503031
 21
150.6500078482578
 31
0.0
  0
LINE
  5
115
330
1F
100
AcDbEntity
  8
0
  6
Continuous
 62
     7
100
AcDbLine
 10
195.4894917857602
 20
81.10618803085083
 30
0.0
 11
194.106523982082
 21
81.35004256809344
 31
0.0
  0
LINE
  5
116
330
1F
100
AcDbEntity
  8
0
  6
Continuous
 62
     7
100
AcDbLine
 10
194.0894917857601
 20
81.35191122992916
 30
0.0
 11
194.106523982082
 21
81.35004256809344
 31
0.0
  0
LINE
  5
117
330
1F
100
AcDbEntity
  8
1
  6
Continuous
 62
     7
100
AcDbLine
 10
194.504124229643
 20
105.1061880308523
 30
0.0
 11
195.478093960295
 21
103.6061880308523
 31
0.0
  0
LINE
  5
118
330
1F
100
AcDbEntity
  8
1
  6
Continuous
 62
     7
100
AcDbLine
 10
195.478093960295
 20
103.6061880308523
 30
0.0
 11
194.451759034859
 21
102.1061880308523
 31
0.0
  0
LINE
  5
119
330
1F
100
AcDbEntity
  8
1
  6
Continuous
 62
     7
100
AcDbLine
 10
194.451759034859
 20
102.1061880308523
 30
0.0
 11
195.4257287655101
 21
100.6061880308523
 31
0.0
  0
LINE
  5
11A
330
1F
100
AcDbEntity
  8
1
  6
Continuous
 62
     7
100
AcDbLine
 10
195.4257287655101
 20
100.6061880308523
 30
0.0
 11
194.3993938400741
 21
99.10618803085225
 31
0.0
  0
LINE
  5
11B
330
1F
100
AcDbEntity
  8
1
  6
Continuous
 62
     7
100
AcDbLine
 10
194.3993938400741
 20
99.10618803085225
 30
0.0
 11
195.373363570725
 21
97.60618803085225
 31
0.0
  0
LINE
  5
11C
330
1F
100
AcDbEntity
  8
1
  6
Continuous
 62
     7
100
AcDbLine
 10
195.373363570725
 20
97.60618803085225
 30
0.0
 11
194.347028645289
 21
96.10618803085225
 31
0.0
  0
LINE
  5
11D
330
1F
100
AcDbEntity
  8
1
  6
Continuous
 62
     7
100
AcDbLine
 10
194.347028645289
 20
96.10618803085225
 30
0.0
 11
195.320998375941
 21
94.60618803085225
 31
0.0
  0
LINE
  5
11E
330
1F
100
AcDbEntity
  8
1
  6
Continuous
 62
     7
100
AcDbLine
 10
195.320998375941
 20
94.60618803085225
 30
0.0
 11
194.2946634505041
 21
93.10618803085225
 31
0.0
  0
LINE
  5
11F
330
1F
100
AcDbEntity
  8
1
  6
Continuous
 62
     4
100
AcDbLine
 10
214.0894917857601
 20
102.1061880308523
 30
0.0
 11
213.06249178576
 21
100.6061880308523
 31
0.0
  0
LINE
  5
120
330
1F
100
AcDbEntity
  8
1
  6
Continuous
 62
     4
100
AcDbLine
 10
213.06249178576
 20
100.6061880308523
 30
0.0
 11
214.0894917857601
 21
99.10618803085225
 31
0.0
  0
LINE
  5
121
330
1F
100
AcDbEntity
  8
1
  6
Continuous
 62
     4
100
AcDbLine
 10
214.0894917857601
 20
99.10618803085225
 30
0.0
 11
213.06249178576
 21
97.60618803085225
 31
0.0
  0
LINE
  5
122
330
1F
100
AcDbEntity
  8
1
  6
Continuous
 62
     4
100
AcDbLine
 10
213.06249178576
 20
97.60618803085225
 30
0.0
 11
214.0894917857601
 21
96.10618803085225
 31
0.0
  0
LINE
  5
123
330
1F
100
AcDbEntity
  8
1
  6
Continuous
 62
     4
100
AcDbLine
 10
214.0894917857601
 20
96.10618803085225
 30
0.0
 11
213.06249178576
 21
94.60618803085225
 31
0.0
  0
LINE
  5
124
330
1F
100
AcDbEntity
  8
1
  6
Continuous
 62
     7
100
AcDbLine
 10
214.0894917857601
 20
105.1061880308523
 30
0.0
 11
214.0894917857601
 21
93.10618803085225
 31
0.0
  0
LINE
  5
125
330
1F
100
AcDbEntity
  8
1
  6
Continuous
 62
     4
100
AcDbLine
 10
213.06249178576
 20
94.60618803085225
 30
0.0
 11
214.0894917857601
 21
93.10618803085225
 31
0.0
  0
LINE
  5
126
330
1F
100
AcDbEntity
  8
1
  6
Continuous
 62
     7
100
AcDbLine
 10
213.06249178576
 20
103.6061880308523
 30
0.0
 11
195.478093960295
 21
103.6061880308523
 31
0.0
  0
LINE
  5
127
330
1F
100
AcDbEntity
  8
1
  6
Continuous
 62
     7
100
AcDbLine
 10
194.451759034859
 20
102.1061880308523
 30
0.0
 11
214.0894917857601
 21
102.1061880308523
 31
0.0
  0
LINE
  5
128
330
1F
100
AcDbEntity
  8
1
  6
Continuous
 62
     7
100
AcDbLine
 10
213.06249178576
 20
100.6061880308523
 30
0.0
 11
195.4257287655101
 21
100.6061880308523
 31
0.0
  0
LINE
  5
129
330
1F
100
AcDbEntity
  8
1
  6
Continuous
 62
     7
100
AcDbLine
 10
194.3993938400741
 20
99.10618803085225
 30
0.0
 11
214.0894917857601
 21
99.10618803085225
 31
0.0
  0
LINE
  5
12A
330
1F
100
AcDbEntity
  8
1
  6
Continuous
 62
     7
100
AcDbLine
 10
213.06249178576
 20
97.60618803085225
 30
0.0
 11
195.373363570725
 21
97.60618803085225
 31
0.0
  0
LINE
  5
12B
330
1F
100
AcDbEntity
  8
1
  6
Continuous
 62
     7
100
AcDbLine
 10
194.347028645289
 20
96.10618803085225
 30
0.0
 11
214.0894917857601
 21
96.10618803085225
 31
0.0
  0
LINE
  5
12C
330
1F
100
AcDbEntity
  8
1
  6
Continuous
 62
     7
100
AcDbLine
 10
213.06249178576
 20
94.60618803085225
 30
0.0
 11
195.320998375941
 21
94.60618803085225
 31
0.0
  0
LINE
  5
12D
330
1F
100
AcDbEntity
  8
1
  6
Continuous
 62
     7
100
AcDbLine
 10
194.2946634505041
 20
93.10618803085225
 30
0.0
 11
214.0894917857601
 21
93.10618803085225
 31
0.0
  0
LINE
  5
12E
330
1F
100
AcDbEntity
  8
1
  6
Continuous
 62
     7
100
AcDbLine
 10
194.504124229643
 20
105.1061880308523
 30
0.0
 11
194.6088546192121
 21
111.1061880308523
 31
0.0
  0
LINE
  5
12F
330
1F
100
AcDbEntity
  8
1
  6
Continuous
 62
     7
100
AcDbLine
 10
195.1848717618431
 20
144.1061880308523
 30
0.0
 11
196.1588414924951
 21
142.6061880308523
 31
0.0
  0
LINE
  5
130
330
1F
100
AcDbEntity
  8
1
  6
Continuous
 62
     7
100
AcDbLine
 10
195.1848717618431
 20
144.1061880308523
 30
0.0
 11
195.247661209757
 21
147.703393092643
 31
0.0
  0
LINE
  5
131
330
1F
100
AcDbEntity
  8
1
  6
Continuous
 62
     7
100
AcDbLine
 10
195.6351895446491
 20
112.6061880308523
 30
0.0
 11
194.6088546192121
 21
111.1061880308523
 31
0.0
  0
LINE
  5
132
330
1F
100
AcDbEntity
  8
1
  6
Continuous
 62
     7
100
AcDbLine
 10
196.1588414924951
 20
142.6061880308523
 30
0.0
 11
195.6351895446491
 21
112.6061880308523
 31
0.0
  0
LINE
  5
133
330
1F
100
AcDbEntity
  8
1
  6
Continuous
 62
     7
100
AcDbLine
 10
194.2946634505041
 20
93.10618803085225
 30
0.0
 11
194.0894917857601
 21
81.35191122992916
 31
0.0
  0
LINE
  5
134
330
1F
100
AcDbEntity
  8
1
  6
Continuous
 62
     7
100
AcDbLine
 10
195.4894917857602
 20
81.10618803085083
 30
0.0
 11
235.68949178576
 21
81.10618803085083
 31
0.0
  0
LINE
  5
135
330
1F
100
AcDbEntity
  8
1
  6
DASH_CENTER
 62
     2
100
AcDbLine
 10
99.12031593344364
 20
145.3519112299279
 30
0.0
 11
99.12031593344443
 21
158.8061880308507
 31
0.0
  0
LINE
  5
136
330
1F
100
AcDbEntity
  8
1
  6
DASHED
 62
     2
100
AcDbLine
 10
109.1203159334436
 20
147.1519112299279
 30
0.0
 11
109.1203159334444
 21
151.1061880308509
 31
0.0
  0
LINE
  5
137
330
1F
100
AcDbEntity
  8
1
  6
DASHED
 62
     2
100
AcDbLine
 10
89.12031593344364
 20
147.1519112299279
 30
0.0
 11
89.12031593344443
 21
151.1061880308508
 31
0.0
  0
LINE
  5
138
330
1F
100
AcDbEntity
  8
1
  6
DASHED
 62
     2
100
AcDbLine
 10
83.12031593344466
 20
151.1061880308509
 30
0.0
 11
83.12031593344545
 21
147.1519112299279
 31
0.0
  0
LINE
  5
139
330
1F
100
AcDbEntity
  8
1
  6
DASHED
 62
     2
100
AcDbLine
 10
63.12031593344466
 20
151.1061880308508
 30
0.0
 11
63.12031593344545
 21
147.1519112299279
 31
0.0
  0
LINE
  5
13A
330
1F
100
AcDbEntity
  8
1
  6
DASH_CENTER
 62
     2
100
AcDbLine
 10
73.12031593344466
 20
158.8061880308507
 30
0.0
 11
73.12031593344545
 21
145.3519112299279
 31
0.0
  0
LINE
  5
13B
330
1F
100
AcDbEntity
  8
1
  6
DASH_CENTER
 62
     2
100
AcDbLine
 10
99.12031593344364
 20
165.1519112299278
 30
0.0
 11
99.12031593344454
 21
168.8061880308507
 31
0.0
  0
LINE
  5
13C
330
1F
100
AcDbEntity
  8
1
  6
DASH_CENTER
 62
     2
100
AcDbLine
 10
73.12031593344432
 20
168.8061880308507
 30
0.0
 11
73.12031593344523
 21
165.1519112299278
 31
0.0
  0
LINE
  5
13D
330
1F
100
AcDbEntity
  8
1
  6
Continuous
 62
     7
100
AcDbLine
 10
40.61876729147753
 20
83.70618803085085
 30
0.0
 11
40.61876729147753
 21
91.50618803085081
 31
0.0
  0
LINE
  5
13E
330
1F
100
AcDbEntity
  8
1
  6
Continuous
 62
     7
100
AcDbLine
 10
49.65254380312922
 20
83.20618803085102
 30
0.0
 11
41.11876729147753
 21
83.20618803085085
 31
0.0
  0
LINE
  5
13F
330
1F
100
AcDbEntity
  8
1
  6
Continuous
 62
     7
100
AcDbLine
 10
41.91876729147771
 20
91.90618803085084
 30
0.0
 11
41.91876729147771
 21
83.30618803085093
 31
0.0
  0
LINE
  5
140
330
1F
100
AcDbEntity
  8
1
  6
Continuous
 62
     7
100
AcDbLine
 10
41.11876729147753
 20
92.00618803085075
 30
0.0
 11
49.80549032863235
 21
92.0061880308512
 31
0.0
  0
LINE
  5
141
330
1F
100
AcDbEntity
  8
1
  6
Continuous
 62
     7
100
AcDbLine
 10
130.32186457541
 20
83.30618803085093
 30
0.0
 11
130.32186457541
 21
91.90618803085084
 31
0.0
  0
LINE
  5
142
330
1F
100
AcDbEntity
  8
1
  6
Continuous
 62
     7
100
AcDbLine
 10
131.6218645754101
 20
91.50618803085081
 30
0.0
 11
131.6218645754101
 21
83.70618803085085
 31
0.0
  0
LINE
  5
143
330
1F
100
AcDbEntity
  8
1
  6
Continuous
 62
     7
100
AcDbLine
 10
122.435141538255
 20
92.0061880308512
 30
0.0
 11
131.1218645754101
 21
92.00618803085075
 31
0.0
  0
LINE
  5
144
330
1F
100
AcDbEntity
  8
1
  6
Continuous
 62
     7
100
AcDbLine
 10
131.1218645754101
 20
83.20618803085085
 30
0.0
 11
122.5880880637581
 21
83.20618803085102
 31
0.0
  0
LINE
  5
145
330
1F
100
AcDbEntity
  8
1
  6
DOT_CENTER
 62
     2
100
AcDbLine
 10
51.96983601845045
 20
87.60618803085083
 30
0.0
 11
37.09616735948021
 21
87.60618803085083
 31
0.0
  0
LINE
  5
146
330
1F
100
AcDbEntity
  8
1
  6
DOT_CENTER
 62
     2
100
AcDbLine
 10
135.1444645074071
 20
87.60618803085083
 30
0.0
 11
120.2707958484371
 21
87.60618803085083
 31
0.0
  0
LINE
  5
147
330
1F
100
AcDbEntity
  8
1
  6
DOT_CENTER
 62
     2
100
AcDbLine
 10
222.179112093094
 20
87.60618803085083
 30
0.0
 11
208.9998714784271
 21
87.60618803085083
 31
0.0
  0
LINE
  5
148
330
1F
100
AcDbEntity
  8
1
  6
DASH_CENTER
 62
     2
100
AcDbLine
 10
86.12031593344372
 20
90.8196106722833
 30
0.0
 11
86.12031593344443
 21
171.906188030851
 31
0.0
  0
ARC
  5
149
102
{ACAD_REACTORS
330
1BD
102
}
330
1F
100
AcDbEntity
  8
1
  6
Continuous
 62
     7
100
AcDbCircle
 10
88.52031593344398
 20
86.23708799582747
 30
0.0
 40
0.1999999999999865
100
AcDbArc
 50
299.981639368849
 51
119.9816393688531
  0
ARC
  5
14A
102
{ACAD_REACTORS
330
1BD
102
}
330
1F
100
AcDbEntity
  8
1
  6
Continuous
 62
     7
100
AcDbCircle
 10
88.52031593344398
 20
87.22904963038934
 30
0.0
 40
0.2000000000000739
100
AcDbArc
 50
270.0
 51
90.0
  0
ARC
  5
14B
102
{ACAD_REACTORS
330
1BD
102
}
330
1F
100
AcDbEntity
  8
1
  6
Continuous
 62
     7
100
AcDbCircle
 10
88.52031593344398
 20
88.22101126495144
 30
0.0
 40
0.1999999999999619
100
AcDbArc
 50
240.0183606311469
 51
60.01836063112246
  0
ARC
  5
14C
102
{ACAD_REACTORS
330
1C0
102
}
330
1F
100
AcDbEntity
  8
1
  6
Continuous
 62
     7
100
AcDbCircle
 10
83.72031593344403
 20
86.23708799582747
 30
0.0
 40
0.2000000000000455
100
AcDbArc
 50
180.0
 51
0.0
  0
ARC
  5
14D
102
{ACAD_REACTORS
330
1C0
102
}
330
1F
100
AcDbEntity
  8
1
  6
Continuous
 62
     7
100
AcDbCircle
 10
83.72031593344403
 20
88.22101126495144
 30
0.0
 40
0.2000000000000455
100
AcDbArc
 50
0.0
 51
180.0
  0
ARC
  5
14E
102
{ACAD_REACTORS
330
1BF
102
}
330
1F
100
AcDbEntity
  8
1
  6
Continuous
 62
     7
100
AcDbCircle
 10
85.92031593344407
 20
84.96785722659646
 30
0.0
 40
0.1999999999999865
100
AcDbArc
 50
240.018360631151
 51
60.01836063116315
  0
ARC
  5
14F
102
{ACAD_REACTORS
330
1BF
102
}
330
1F
100
AcDbEntity
  8
1
  6
Continuous
 62
     7
100
AcDbCircle
 10
84.5203159334441
 20
88.68254972648987
 30
0.0
 40
0.1999999999999318
100
AcDbArc
 50
0.0
 51
180.0
  0
ARC
  5
150
102
{ACAD_REACTORS
330
1BE
102
}
330
1F
100
AcDbEntity
  8
1
  6
Continuous
 62
     7
100
AcDbCircle
 10
86.96133620595882
 20
89.16778001761014
 30
0.0
 40
0.1589797274853026
100
AcDbArc
 50
0.0
 51
149.9999999999488
  0
ARC
  5
151
102
{ACAD_REACTORS
330
1BE
102
}
330
1F
100
AcDbEntity
  8
1
  6
Continuous
 62
     7
100
AcDbCircle
 10
86.92031593344407
 20
85.31401107275056
 30
0.0
 40
0.2000000000000455
100
AcDbArc
 50
180.0
 51
0.0
  0
ARC
  5
152
102
{ACAD_REACTORS
330
1BE
102
}
330
1F
100
AcDbEntity
  8
1
  6
Continuous
 62
     7
100
AcDbCircle
 10
85.32031593344416
 20
86.23760067396904
 30
0.0
 40
0.2000000000000455
100
AcDbArc
 50
180.0
 51
0.0
  0
ARC
  5
153
102
{ACAD_REACTORS
330
1BE
102
}
330
1F
100
AcDbEntity
  8
1
  6
Continuous
 62
     7
100
AcDbCircle
 10
85.27929566092931
 20
89.16778001761014
 30
0.0
 40
0.1589797274851963
100
AcDbArc
 50
30.0000000000103
 51
180.0
  0
ARC
  5
154
330
1F
100
AcDbEntity
  8
1
  6
Continuous
 62
     7
100
AcDbCircle
 10
41.11876729147753
 20
91.50618803085064
 30
0.0
 40
0.5000000000001137
100
AcDbArc
 50
90.0
 51
179.9999999999804
  0
ARC
  5
155
330
1F
100
AcDbEntity
  8
1
  6
Continuous
 62
     7
100
AcDbCircle
 10
41.11876729147753
 20
83.70618803085085
 30
0.0
 40
0.5
100
AcDbArc
 50
180.0
 51
270.0
  0
ARC
  5
156
330
1F
100
AcDbEntity
  8
1
  6
Continuous
 62
     7
100
AcDbCircle
 10
131.1218645754101
 20
83.70618803085085
 30
0.0
 40
0.5
100
AcDbArc
 50
270.0
 51
0.0
  0
ARC
  5
157
330
1F
100
AcDbEntity
  8
1
  6
Continuous
 62
     7
100
AcDbCircle
 10
131.1218645754101
 20
91.50618803085064
 30
0.0
 40
0.5
100
AcDbArc
 50
0.00000000001954
 51
90.0
  0
CIRCLE
  5
158
330
1F
100
AcDbEntity
  8
1
  6
Continuous
 62
     7
100
AcDbCircle
 10
215.5894917857601
 20
87.60618803085083
 30
0.0
 40
4.400000000000119
  0
SPLINE
  5
159
330
1F
100
AcDbEntity
  8
0
  6
Continuous
 62
     7
100
AcDbSpline
210
0.0
220
0.0
230
1.0
 70
     8
 71
     3
 72
     9
 73
     5
 74
     3
 42
0.000000001
 43
0.0000000001
 44
0.00000001
 40
0.0
 40
0.0
 40
0.0
 40
0.0
 40
2.041482360649054
 40
4.082964721298096
 40
4.082964721298096
 40
4.082964721298096
 40
4.082964721298096
 10
115.0077580623221
 20
148.6281293475498
 30
0.0
 10
114.731557577116
 20
149.2986071516938
 30
0.0
 10
114.1791565928605
 20
150.63956274832
 30
0.0
 10
112.7626341614049
 20
150.9506462752267
 30
0.0
 10
112.0543729411371
 20
151.1061880308508
 30
0.0
 11
115.0077580623221
 21
148.6281293475498
 31
0.0
 11
113.9631262374881
 21
150.3820947385507
 31
0.0
 11
112.0543729411371
 21
151.1061880308508
 31
0.0
  0
SPLINE
  5
15A
330
1F
100
AcDbEntity
  8
0
  6
Continuous
 62
     7
100
AcDbSpline
210
0.0
220
0.0
230
1.0
 70
    24
 71
     3
 72
    46
 73
    42
 74
    40
 42
0.000000001
 43
0.0000000001
 44
0.00000001
 40
0.0
 40
0.0
 40
0.0
 40
0.0
 40
2.977718193751159
 40
5.778538188048699
 40
8.406933324247007
 40
10.86737694370055
 40
13.16434238776364
 40
15.30230299779078
 40
17.28573211513638
 40
19.11910308115478
 40
20.80688923720049
 40
22.35356392462786
 40
23.76360048479135
 40
25.04147225904535
 40
26.1916525887443
 40
27.21861481524257
 40
28.12683227989467
 40
28.92077832405494
 40
29.60492628907775
 40
30.18374951631763
 40
30.66172134712895
 40
31.04331512286613
 40
31.33300418488359
 40
31.53526187453572
 40
31.65456153317697
 40
31.69537650216171
 40
31.77972809412269
 40
32.01702350023186
 40
32.3963422529574
 40
32.90676388476737
 40
33.53736792813001
 40
34.27723391551343
 40
35.1154413793858
 40
36.04106985221527
 40
37.04319886646995
 40
38.11090795461803
 40
39.23327664912766
 40
40.39938448246693
 40
41.59831098710407
 40
42.81913569550719
 40
44.05093814014441
 40
44.05093814014441
 40
44.05093814014441
 40
44.05093814014441
 10
111.7750635945361
 20
150.6653595027119
 30
0.0
 10
110.7824908632857
 20
150.6653595027119
 30
0.0
 10
108.8563114672694
 20
150.665359502712
 30
0.0
 10
106.0540003591872
 20
150.6653595027121
 30
0.0
 10
103.424114109204
 20
150.6653595027121
 30
0.0
 10
100.9621793759657
 20
150.6653595027121
 30
0.0
 10
98.66372281811778
 20
150.6653595027121
 30
0.0
 10
96.52427109430585
 20
150.6653595027121
 30
0.0
 10
94.53935086317547
 20
150.6653595027121
 30
0.0
 10
92.7044887833722
 20
150.6653595027121
 30
0.0
 10
91.01521151354174
 20
150.6653595027121
 30
0.0
 10
89.46704571232955
 20
150.6653595027121
 30
0.0
 10
88.05551803838125
 20
150.6653595027121
 30
0.0
 10
86.77615515034245
 20
150.6653595027121
 30
0.0
 10
85.62448370685871
 20
150.6653595027121
 30
0.0
 10
84.59603036657558
 20
150.665359502712
 30
0.0
 10
83.68632178813874
 20
150.6653595027121
 30
0.0
 10
82.89088463019365
 20
150.665359502712
 30
0.0
 10
82.20524555138599
 20
150.665359502712
 30
0.0
 10
81.62493121036135
 20
150.6653595027121
 30
0.0
 10
81.14546826576519
 20
150.665359502712
 30
0.0
 10
80.7623833762432
 20
150.665359502712
 30
0.0
 10
80.47120320044098
 20
150.665359502712
 30
0.0
 10
80.267454397004
 20
150.665359502712
 30
0.0
 10
80.14666362457797
 20
150.665359502712
 30
0.0
 10
80.06517488471565
 20
150.665359502712
 30
0.0
 10
79.94435422903071
 20
150.665359502712
 30
0.0
 10
79.71069897876546
 20
150.665359502712
 30
0.0
 10
79.3350203818839
 20
150.665359502712
 30
0.0
 10
78.82823890591784
 20
150.665359502712
 30
0.0
 10
78.20127501839916
 20
150.6653595027119
 30
0.0
 10
77.46504918685969
 20
150.665359502712
 30
0.0
 10
76.63048187883128
 20
150.665359502712
 30
0.0
 10
75.70849356184577
 20
150.665359502712
 30
0.0
 10
74.71000470343503
 20
150.6653595027119
 30
0.0
 10
73.64593577113087
 20
150.6653595027119
 30
0.0
 10
72.52720723246524
 20
150.6653595027119
 30
0.0
 10
71.36473955496989
 20
150.6653595027119
 30
0.0
 10
70.16945320617671
 20
150.6653595027119
 30
0.0
 10
68.95226865361755
 20
150.6653595027119
 30
0.0
 10
68.13472626927077
 20
150.6653595027119
 30
0.0
 10
67.7241254543917
 20
150.6653595027119
 30
0.0
 11
111.7750635945361
 21
150.6653595027119
 31
0.0
 11
108.7973454007849
 21
150.6653595027119
 31
0.0
 11
105.9965254064873
 21
150.6653595027119
 31
0.0
 11
103.368130270289
 21
150.6653595027119
 31
0.0
 11
100.9076866508354
 21
150.6653595027119
 31
0.0
 11
98.61072120677231
 21
150.6653595027119
 31
0.0
 11
96.47276059674518
 21
150.6653595027119
 31
0.0
 11
94.48933147939958
 21
150.6653595027119
 31
0.0
 11
92.65596051338119
 21
150.6653595027119
 31
0.0
 11
90.96817435733549
 21
150.6653595027119
 31
0.0
 11
89.42149966990812
 21
150.6653595027119
 31
0.0
 11
88.01146310974464
 21
150.6653595027119
 31
0.0
 11
86.73359133549064
 21
150.6653595027119
 31
0.0
 11
85.5834110057917
 21
150.6653595027119
 31
0.0
 11
84.55644877929343
 21
150.6653595027119
 31
0.0
 11
83.64823131464135
 21
150.6653595027119
 31
0.0
 11
82.8542852704811
 21
150.6653595027119
 31
0.0
 11
82.17013730545827
 21
150.6653595027119
 31
0.0
 11
81.5913140782184
 21
150.6653595027119
 31
0.0
 11
81.11334224740709
 21
150.6653595027119
 31
0.0
 11
80.7317484716699
 21
150.6653595027119
 31
0.0
 11
80.44205940965246
 21
150.6653595027119
 31
0.0
 11
80.23980172000032
 21
150.6653595027119
 31
0.0
 11
80.12050206135908
 21
150.6653595027119
 31
0.0
 11
80.07968709237433
 21
150.6653595027119
 31
0.0
 11
79.99533550041335
 21
150.6653595027119
 31
0.0
 11
79.75804009430419
 21
150.6653595027119
 31
0.0
 11
79.37872134157867
 21
150.6653595027119
 31
0.0
 11
78.86829970976868
 21
150.6653595027119
 31
0.0
 11
78.23769566640605
 21
150.6653595027119
 31
0.0
 11
77.49782967902263
 21
150.6653595027119
 31
0.0
 11
76.65962221515026
 21
150.6653595027119
 31
0.0
 11
75.7339937423208
 21
150.6653595027119
 31
0.0
 11
74.73186472806613
 21
150.6653595027119
 31
0.0
 11
73.66415563991806
 21
150.6653595027119
 31
0.0
 11
72.54178694540843
 21
150.6653595027119
 31
0.0
 11
71.37567911206916
 21
150.6653595027119
 31
0.0
 11
70.17675260743204
 21
150.6653595027119
 31
0.0
 11
68.95592789902892
 21
150.6653595027119
 31
0.0
 11
67.7241254543917
 21
150.6653595027119
 31
0.0
  0
SPLINE
  5
15B
330
1F
100
AcDbEntity
  8
0
  6
Continuous
 62
     7
100
AcDbSpline
210
0.0
220
0.0
230
1.0
 70
     8
 71
     3
 72
    13
 73
     9
 74
     7
 42
0.000000001
 43
0.0000000001
 44
0.00000001
 40
0.0
 40
0.0
 40
0.0
 40
0.0
 40
0.783712733723854
 40
1.536255346191548
 40
2.258536559373344
 40
2.952628017036393
 40
3.626073184861978
 40
4.30509837753518
 40
4.30509837753518
 40
4.30509837753518
 40
4.30509837753518
 10
112.3104079720811
 20
142.6061880308508
 30
0.0
 10
112.0994784230773
 20
142.7606160388959
 30
0.0
 10
111.6860084871207
 20
143.0633300736265
 30
0.0
 10
111.0301301708015
 20
143.4361825684969
 30
0.0
 10
110.3696480117824
 20
143.7333078110788
 30
0.0
 10
109.705174905016
 20
143.9462442100643
 30
0.0
 10
109.0338830868906
 20
144.0822093948713
 30
0.0
 10
108.5826825048123
 20
144.0981732025374
 30
0.0
 10
108.3561514311875
 20
144.1061880308517
 30
0.0
 11
112.3104079720811
 21
142.6061880308508
 31
0.0
 11
111.6691201151451
 21
143.0566938939882
 31
0.0
 11
111.0159194692121
 21
143.4303906969963
 31
0.0
 11
110.3561149261869
 21
143.7242411987723
 31
0.0
 11
109.6950690540812
 21
143.9358571444903
 31
0.0
 11
109.0338346420566
 21
144.0635186055851
 31
0.0
 11
108.3561514311875
 21
144.1061880308517
 31
0.0
  0
SPLINE
  5
15C
330
1F
100
AcDbEntity
  8
0
  6
Continuous
 62
     7
100
AcDbSpline
210
0.0
220
0.0
230
1.0
 70
     8
 71
     3
 72
    27
 73
    23
 74
    21
 42
0.000000001
 43
0.0000000001
 44
0.00000001
 40
0.0
 40
0.0
 40
0.0
 40
0.0
 40
0.0002368629970802
 40
0.0004736718707519
 40
0.0007104477520716
 40
0.000947209410167
 40
0.0011839779242001
 40
0.0014207720823425
 40
0.0016576129382933
 40
0.0018945192743455
 40
0.0021315120953387
 40
0.0023686101579324
 40
0.0026058343969089
 40
0.0028432035202452
 40
0.0030807383712734
 40
0.0033184575882436
 40
0.0035563819032566
 40
0.0037945298612398
 40
0.0040329220622137
 40
0.0042715769404514
 40
0.004510514943171
 40
0.0047497544180121
 40
0.0047497544180121
 40
0.0047497544180121
 40
0.0047497544180121
 10
122.2376392562691
 20
81.28487093837174
 30
0.0
 10
122.2377182100709
 20
81.28487052462097
 30
0.0
 10
122.2378760996815
 20
81.28486971185353
 30
0.0
 10
122.2381129157911
 20
81.28487121924873
 30
0.0
 10
122.2383496741886
 20
81.2848747510162
 30
0.0
 10
122.2385863767797
 20
81.28488049528954
 30
0.0
 10
122.2388230227488
 20
81.28488840164454
 30
0.0
 10
122.2390596125636
 20
81.28489848356337
 30
0.0
 10
122.2392961457953
 20
81.28491073737227
 30
0.0
 10
122.2395326228044
 20
81.28492516400033
 30
0.0
 10
122.2397690431955
 20
81.28494176309948
 30
0.0
 10
122.2400054073171
 20
81.28496053467929
 30
0.0
 10
122.2402417147831
 20
81.28498147859698
 30
0.0
 10
122.2404779659332
 20
81.28500459479456
 30
0.0
 10
122.2407141603992
 20
81.28502988305381
 30
0.0
 10
122.2409502984749
 20
81.28505734352177
 30
0.0
 10
122.2411863799516
 20
81.28508697508425
 30
0.0
 10
122.2414224045456
 20
81.28511878111085
 30
0.0
 10
122.2416583741952
 20
81.28515274833218
 30
0.0
 10
122.2418942806098
 20
81.28518892541729
 30
0.0
 10
122.2421301556671
 20
81.28522712963606
 30
0.0
 10
122.2422872012547
 20
81.28525438735528
 30
0.0
 10
122.2423657723151
 20
81.28526803202391
 30
0.0
 11
122.2376392562691
 21
81.28487093837174
 31
0.0
 11
122.2378761180466
 21
81.28487015631023
 31
0.0
 11
122.238112922951
 21
81.28487154681272
 31
0.0
 11
122.2383496721307
 21
81.28487510989704
 31
0.0
 11
122.23858636441
 21
81.28488084553794
 31
0.0
 11
122.23882300092
 21
81.28488875374752
 31
0.0
 11
122.2390595805041
 21
81.28489883445593
 31
0.0
 11
122.2392961042778
 21
81.28491108767001
 31
0.0
 11
122.2395325711011
 21
81.28492551327474
 31
0.0
 11
122.2397689820721
 21
81.28494211127091
 31
0.0
 11
122.2400053360701
 21
81.28496088149785
 31
0.0
 11
122.240241634176
 21
81.2849818239503
 31
0.0
 11
122.2404778752871
 21
81.28500493842381
 31
0.0
 11
122.2407140604671
 21
81.28503022490642
 31
0.0
 11
122.240950188632
 21
81.28505768314892
 31
0.0
 11
122.2411862608292
 21
81.28508731313295
 31
0.0
 11
122.2414222759911
 21
81.28511911456582
 31
0.0
 11
122.2416582351483
 21
81.28515308742077
 31
0.0
 11
122.2418941372531
 21
81.285189231363
 31
0.0
 11
122.2421299833185
 21
81.28522754635564
 31
0.0
 11
122.2423657723151
 21
81.28526803202391
 31
0.0
  0
SPLINE
  5
15D
330
1F
100
AcDbEntity
  8
0
  6
Continuous
 62
     7
100
AcDbSpline
210
0.0
220
0.0
230
1.0
 70
     8
 71
     3
 72
    13
 73
     9
 74
     7
 42
0.000000001
 43
0.0000000001
 44
0.00000001
 40
0.0
 40
0.0
 40
0.0
 40
0.0
 40
0.6640613120228734
 40
1.293516654421598
 40
1.917198144837947
 40
2.546554845902508
 40
3.18843523714902
 40
3.848907649143889
 40
3.848907649143889
 40
3.848907649143889
 40
3.848907649143889
 10
114.1543082500921
 20
111.1061880308508
 30
0.0
 10
114.3758991201201
 20
111.1137674120647
 30
0.0
 10
114.8075331801622
 20
111.1285312074473
 30
0.0
 10
115.435566292457
 20
111.2625011646151
 30
0.0
 10
116.0278992402668
 20
111.4751043085707
 30
0.0
 10
116.5871551247985
 20
111.7725643748967
 30
0.0
 10
117.1147378392484
 20
112.1463960501033
 30
0.0
 10
117.424412092782
 20
112.451472306197
 30
0.0
 10
117.581459625629
 20
112.6061880308508
 30
0.0
 11
114.1543082500921
 21
111.1061880308508
 31
0.0
 11
114.816997277987
 21
111.1488574561175
 31
0.0
 11
115.4333710129711
 21
111.2765189172123
 31
0.0
 11
116.0200543130371
 21
111.4881348629303
 31
0.0
 11
116.5765987778435
 21
111.7819853647058
 31
0.0
 11
117.0984810803482
 21
112.1556821677135
 31
0.0
 11
117.581459625629
 21
112.6061880308508
 31
0.0
  0
SPLINE
  5
15E
330
1F
100
AcDbEntity
  8
0
  6
Continuous
 62
     7
100
AcDbSpline
210
0.0
220
0.0
230
1.0
 70
     8
 71
     3
 72
    13
 73
     9
 74
     7
 42
0.000000001
 43
0.0000000001
 44
0.00000001
 40
0.0
 40
0.0
 40
0.0
 40
0.0
 40
0.7837127337237901
 40
1.536255346191515
 40
2.258536559373336
 40
2.952628017036392
 40
3.626073184861957
 40
4.305098377535236
 40
4.305098377535236
 40
4.305098377535236
 40
4.305098377535236
 10
59.93022389480643
 20
142.6061880308508
 30
0.0
 10
60.14115344381018
 20
142.7606160388959
 30
0.0
 10
60.5546233797667
 20
143.0633300736265
 30
0.0
 10
61.21050169608597
 20
143.4361825684969
 30
0.0
 10
61.87098385510505
 20
143.7333078110788
 30
0.0
 10
62.53545696187149
 20
143.9462442100643
 30
0.0
 10
63.20674877999696
 20
144.0822093948712
 30
0.0
 10
63.65794936207525
 20
144.0981732025375
 30
0.0
 10
63.88448043570008
 20
144.1061880308517
 30
0.0
 11
59.93022389480643
 21
142.6061880308508
 31
0.0
 11
60.57151175174238
 21
143.0566938939882
 31
0.0
 11
61.22471239767543
 21
143.4303906969963
 31
0.0
 11
61.88451694070059
 21
143.7242411987723
 31
0.0
 11
62.54556281280628
 21
143.9358571444903
 31
0.0
 11
63.20679722483093
 21
144.0635186055851
 31
0.0
 11
63.88448043570008
 21
144.1061880308517
 31
0.0
  0
SPLINE
  5
15F
330
1F
100
AcDbEntity
  8
0
  6
Continuous
 62
     7
100
AcDbSpline
210
0.0
220
0.0
230
1.0
 70
     8
 71
     3
 72
    13
 73
     9
 74
     7
 42
0.000000001
 43
0.0000000001
 44
0.00000001
 40
0.0
 40
0.0
 40
0.0
 40
0.0
 40
0.6640613120230011
 40
1.293516654422095
 40
1.917198144838169
 40
2.54655484590253
 40
3.188435237149175
 40
3.84890764914405
 40
3.84890764914405
 40
3.84890764914405
 40
3.84890764914405
 10
58.08632361679565
 20
111.1061880308508
 30
0.0
 10
57.86473274676767
 20
111.1137674120647
 30
0.0
 10
57.4330986867254
 20
111.1285312074473
 30
0.0
 10
56.80506557443044
 20
111.262501164615
 30
0.0
 10
56.21273262662071
 20
111.4751043085706
 30
0.0
 10
55.65347674208913
 20
111.7725643748968
 30
0.0
 10
55.12589402763925
 20
112.1463960501032
 30
0.0
 10
54.8162197741056
 20
112.451472306197
 30
0.0
 10
54.6591722412586
 20
112.6061880308508
 30
0.0
 11
58.08632361679565
 21
111.1061880308508
 31
0.0
 11
57.42363458890063
 21
111.1488574561175
 31
0.0
 11
56.80726085391615
 21
111.2765189172123
 31
0.0
 11
56.22057755385043
 21
111.4881348629303
 31
0.0
 11
55.66403308904427
 21
111.7819853647058
 31
0.0
 11
55.14215078653937
 21
112.1556821677135
 31
0.0
 11
54.6591722412586
 21
112.6061880308508
 31
0.0
  0
SPLINE
  5
160
330
1F
100
AcDbEntity
  8
0
  6
Continuous
 62
     7
100
AcDbSpline
210
0.0
220
0.0
230
1.0
 70
    24
 71
     3
 72
    46
 73
    42
 74
    40
 42
0.000000001
 43
0.0000000001
 44
0.00000001
 40
0.0
 40
0.0
 40
0.0
 40
0.0
 40
2.977718193751251
 40
5.778538188048884
 40
8.406933324247248
 40
10.86737694370076
 40
13.1643423877639
 40
15.30230299779106
 40
17.28573211513662
 40
19.11910308115502
 40
20.80688923720072
 40
22.35356392462809
 40
23.76360048479155
 40
25.04147225904558
 40
26.19165258874447
 40
27.2186148152428
 40
28.12683227989483
 40
28.92077832405509
 40
29.60492628907795
 40
30.1837495163178
 40
30.66172134712914
 40
31.04331512286628
 40
31.33300418488372
 40
31.53526187453583
 40
31.65456153317706
 40
31.69537650216186
 40
31.7797280941228
 40
32.01702350023196
 40
32.39634225295747
 40
32.90676388476746
 40
33.5373679281301
 40
34.27723391551352
 40
35.11544137938589
 40
36.04106985221532
 40
37.04319886647001
 40
38.11090795461809
 40
39.2332766491277
 40
40.39938448246701
 40
41.59831098710416
 40
42.81913569550731
 40
44.05093814014458
 40
44.05093814014458
 40
44.05093814014458
 40
44.05093814014458
 10
60.46556827235122
 20
150.6653595027119
 30
0.0
 10
61.45814100360165
 20
150.6653595027119
 30
0.0
 10
63.38432039961793
 20
150.6653595027118
 30
0.0
 10
66.18663150770035
 20
150.6653595027118
 30
0.0
 10
68.81651775768351
 20
150.6653595027118
 30
0.0
 10
71.27845249092186
 20
150.6653595027118
 30
0.0
 10
73.57690904876979
 20
150.6653595027117
 30
0.0
 10
75.71636077258174
 20
150.6653595027118
 30
0.0
 10
77.70128100371211
 20
150.6653595027117
 30
0.0
 10
79.53614308351536
 20
150.6653595027118
 30
0.0
 10
81.22542035334584
 20
150.6653595027117
 30
0.0
 10
82.77358615455798
 20
150.6653595027118
 30
0.0
 10
84.18511382850629
 20
150.6653595027118
 30
0.0
 10
85.46447671654508
 20
150.6653595027118
 30
0.0
 10
86.61614816002884
 20
150.6653595027118
 30
0.0
 10
87.64460150031194
 20
150.6653595027118
 30
0.0
 10
88.5543100787488
 20
150.6653595027119
 30
0.0
 10
89.34974723669383
 20
150.6653595027118
 30
0.0
 10
90.03538631550151
 20
150.6653595027119
 30
0.0
 10
90.61570065652619
 20
150.6653595027119
 30
0.0
 10
91.0951636011223
 20
150.6653595027119
 30
0.0
 10
91.47824849064429
 20
150.6653595027118
 30
0.0
 10
91.76942866644647
 20
150.6653595027119
 30
0.0
 10
91.97317746988344
 20
150.6653595027119
 30
0.0
 10
92.09396824230944
 20
150.6653595027118
 30
0.0
 10
92.1754569821718
 20
150.6653595027119
 30
0.0
 10
92.29627763785676
 20
150.6653595027119
 30
0.0
 10
92.52993288812198
 20
150.6653595027119
 30
0.0
 10
92.90561148500349
 20
150.6653595027119
 30
0.0
 10
93.41239296096956
 20
150.6653595027118
 30
0.0
 10
94.03935684848824
 20
150.6653595027118
 30
0.0
 10
94.77558268002772
 20
150.6653595027119
 30
0.0
 10
95.61014998805611
 20
150.6653595027119
 30
0.0
 10
96.53213830504166
 20
150.6653595027119
 30
0.0
 10
97.53062716345235
 20
150.665359502712
 30
0.0
 10
98.59469609575646
 20
150.6653595027119
 30
0.0
 10
99.71342463442217
 20
150.6653595027119
 30
0.0
 10
100.8758923119175
 20
150.6653595027119
 30
0.0
 10
102.0711786607107
 20
150.6653595027119
 30
0.0
 10
103.2883632132699
 20
150.6653595027119
 30
0.0
 10
104.1059055976167
 20
150.6653595027119
 30
0.0
 10
104.5165064124958
 20
150.6653595027119
 30
0.0
 11
60.46556827235122
 21
150.6653595027119
 31
0.0
 11
63.44328646610246
 21
150.6653595027119
 31
0.0
 11
66.2441064604001
 21
150.6653595027119
 31
0.0
 11
68.87250159659847
 21
150.6653595027119
 31
0.0
 11
71.332945216052
 21
150.6653595027119
 31
0.0
 11
73.62991066011516
 21
150.6653595027119
 31
0.0
 11
75.76787127014234
 21
150.6653595027119
 31
0.0
 11
77.75130038748792
 21
150.6653595027119
 31
0.0
 11
79.58467135350634
 21
150.6653595027119
 31
0.0
 11
81.27245750955205
 21
150.6653595027119
 31
0.0
 11
82.81913219697942
 21
150.6653595027119
 31
0.0
 11
84.22916875714292
 21
150.6653595027119
 31
0.0
 11
85.50704053139694
 21
150.6653595027119
 31
0.0
 11
86.65722086109585
 21
150.6653595027119
 31
0.0
 11
87.68418308759418
 21
150.6653595027119
 31
0.0
 11
88.5924005522462
 21
150.6653595027119
 31
0.0
 11
89.38634659640647
 21
150.6653595027119
 31
0.0
 11
90.07049456142934
 21
150.6653595027119
 31
0.0
 11
90.6493177886692
 21
150.6653595027119
 31
0.0
 11
91.12728961948052
 21
150.6653595027119
 31
0.0
 11
91.50888339521767
 21
150.6653595027119
 31
0.0
 11
91.79857245723511
 21
150.6653595027119
 31
0.0
 11
92.00083014688721
 21
150.6653595027119
 31
0.0
 11
92.12012980552845
 21
150.6653595027119
 31
0.0
 11
92.16094477451324
 21
150.6653595027119
 31
0.0
 11
92.2452963664742
 21
150.6653595027119
 31
0.0
 11
92.48259177258335
 21
150.6653595027119
 31
0.0
 11
92.86191052530886
 21
150.6653595027119
 31
0.0
 11
93.37233215711885
 21
150.6653595027119
 31
0.0
 11
94.00293620048147
 21
150.6653595027119
 31
0.0
 11
94.7428021878649
 21
150.6653595027119
 31
0.0
 11
95.58100965173726
 21
150.6653595027119
 31
0.0
 11
96.50663812456668
 21
150.6653595027119
 31
0.0
 11
97.50876713882136
 21
150.6653595027119
 31
0.0
 11
98.57647622696945
 21
150.6653595027119
 31
0.0
 11
99.69884492147904
 21
150.6653595027119
 31
0.0
 11
100.8649527548183
 21
150.6653595027119
 31
0.0
 11
102.0638792594554
 21
150.6653595027119
 31
0.0
 11
103.2847039678586
 21
150.6653595027119
 31
0.0
 11
104.5165064124958
 21
150.6653595027119
 31
0.0
  0
SPLINE
  5
161
330
1F
100
AcDbEntity
  8
0
  6
Continuous
 62
     7
100
AcDbSpline
210
0.0
220
0.0
230
1.0
 70
     8
 71
     3
 72
     9
 73
     5
 74
     3
 42
0.000000001
 43
0.0000000001
 44
0.00000001
 40
0.0
 40
0.0
 40
0.0
 40
0.0
 40
2.041482360648949
 40
4.082964721297724
 40
4.082964721297724
 40
4.082964721297724
 40
4.082964721297724
 10
57.23287380456566
 20
148.6281293475498
 30
0.0
 10
57.50907428977167
 20
149.2986071516937
 30
0.0
 10
58.06147527402704
 20
150.63956274832
 30
0.0
 10
59.47799770548249
 20
150.9506462752267
 30
0.0
 10
60.18625892575017
 20
151.1061880308508
 30
0.0
 11
57.23287380456566
 21
148.6281293475498
 31
0.0
 11
58.27750562939941
 21
150.3820947385507
 31
0.0
 11
60.18625892575017
 21
151.1061880308508
 31
0.0
  0
SPLINE
  5
162
330
1F
100
AcDbEntity
  8
0
  6
Continuous
 62
     7
100
AcDbSpline
210
0.0
220
0.0
230
1.0
 70
     8
 71
     3
 72
    27
 73
    23
 74
    21
 42
0.000000001
 43
0.0000000001
 44
0.00000001
 40
0.0
 40
0.0
 40
0.0
 40
0.0
 40
0.0002368629973999
 40
0.0004736718716116
 40
0.0007104477524341
 40
0.000947209410231
 40
0.0011839779245127
 40
0.0014207720828184
 40
0.0016576129386272
 40
0.0018945192744029
 40
0.0021315120956726
 40
0.00236861015799
 40
0.0026058343972213
 40
0.0028432035202535
 40
0.0030807383719035
 40
0.003318457588556
 40
0.0035563819033434
 40
0.0037945298612985
 40
0.0040329220627225
 40
0.0042715769410514
 40
0.0045105149437711
 40
0.004749754418185
 40
0.004749754418185
 40
0.004749754418185
 40
0.004749754418185
 10
50.00299261061889
 20
81.28487093837174
 30
0.0
 10
50.00291365681698
 20
81.28487052462096
 30
0.0
 10
50.00275576720608
 20
81.28486971185356
 30
0.0
 10
50.00251895109633
 20
81.28487121924873
 30
0.0
 10
50.00228219269891
 20
81.28487475101622
 30
0.0
 10
50.00204549010805
 20
81.28488049528954
 30
0.0
 10
50.00180884413889
 20
81.28488840164455
 30
0.0
 10
50.00157225432403
 20
81.28489848356335
 30
0.0
 10
50.00133572109242
 20
81.28491073737224
 30
0.0
 10
50.00109924408341
 20
81.28492516400036
 30
0.0
 10
50.00086282369228
 20
81.28494176309948
 30
0.0
 10
50.00062645957066
 20
81.28496053467931
 30
0.0
 10
50.00039015210474
 20
81.28498147859692
 30
0.0
 10
50.00015390095445
 20
81.28500459479466
 30
0.0
 10
49.99991770648855
 20
81.28502988305371
 30
0.0
 10
49.99968156841275
 20
81.28505734352176
 30
0.0
 10
49.99944548693619
 20
81.28508697508431
 30
0.0
 10
49.99920946234214
 20
81.28511878111091
 30
0.0
 10
49.99897349269237
 20
81.28515274833212
 30
0.0
 10
49.99873758627762
 20
81.28518892541729
 30
0.0
 10
49.9985017112204
 20
81.28522712963598
 30
0.0
 10
49.99834466563297
 20
81.28525438735531
 30
0.0
 10
49.99826609457273
 20
81.28526803202391
 30
0.0
 11
50.00299261061889
 21
81.28487093837174
 31
0.0
 11
50.00275574884104
 21
81.28487015631023
 31
0.0
 11
50.00251894393614
 21
81.28487154681272
 31
0.0
 11
50.00228219475699
 21
81.28487510989704
 31
0.0
 11
50.00204550247793
 21
81.28488084553794
 31
0.0
 11
50.00180886596772
 21
81.28488875374752
 31
0.0
 11
50.00157228638341
 21
81.28489883445593
 31
0.0
 11
50.0013357626099
 21
81.28491108767001
 31
0.0
 11
50.00109929578684
 21
81.28492551327474
 31
0.0
 11
50.00086288481556
 21
81.28494211127091
 31
0.0
 11
50.00062653081784
 21
81.28496088149785
 31
0.0
 11
50.00039023271171
 21
81.2849818239503
 31
0.0
 11
50.00015399160088
 21
81.28500493842381
 31
0.0
 11
49.99991780642031
 21
81.28503022490642
 31
0.0
 11
49.99968167825568
 21
81.28505768314892
 31
0.0
 11
49.99944560605874
 21
81.28508731313295
 31
0.0
 11
49.99920959089684
 21
81.28511911456582
 31
0.0
 11
49.99897363173913
 21
81.28515308742077
 31
0.0
 11
49.99873772963429
 21
81.285189231363
 31
0.0
 11
49.99850188356885
 21
81.28522754635564
 31
0.0
 11
49.99826609457273
 21
81.28526803202391
 31
0.0
  0
ARC
  5
163
330
1F
100
AcDbEntity
  8
1
  6
Continuous
 62
     7
100
AcDbCircle
 10
232.9317792762942
 20
147.6510358733312
 30
0.0
 40
2.999999999999726
100
AcDbArc
 50
0.99999999999915
 51
88.50000000001569
  0
ARC
  5
164
102
{ACAD_REACTORS
330
1BD
102
}
330
1F
100
AcDbEntity
  8
1
  6
Continuous
 62
     7
100
AcDbCircle
 10
87.72031593344414
 20
85.77554953428884
 30
0.0
 40
0.2000000000001592
100
AcDbArc
 50
180.0
 51
299.9816393688249
  0
ARC
  5
165
102
{ACAD_REACTORS
330
1BD
102
}
330
1F
100
AcDbEntity
  8
1
  6
Continuous
 62
     7
100
AcDbCircle
 10
87.72031593344403
 20
88.68254972648987
 30
0.0
 40
0.2000000000000604
100
AcDbArc
 50
60.01836063116315
 51
180.0
  0
ARC
  5
166
330
1F
100
AcDbEntity
  8
1
  6
Continuous
 62
     7
100
AcDbCircle
 10
91.12020485318001
 20
87.22904963038934
 30
0.0
 40
0.1000000000000302
100
AcDbArc
 50
299.9816393688369
 51
60.01836063117128
  0
ARC
  5
167
330
1F
100
AcDbEntity
  8
1
  6
Continuous
 62
     7
100
AcDbCircle
 10
81.120427013708
 20
87.22904963038934
 30
0.0
 40
0.0999999999999412
100
AcDbArc
 50
119.9816393687159
 51
240.018360631276
  0
ARC
  5
168
102
{ACAD_REACTORS
330
1BF
102
}
330
1F
100
AcDbEntity
  8
1
  6
Continuous
 62
     7
100
AcDbCircle
 10
84.72031593344403
 20
85.89106231920894
 30
0.0
 40
0.3999999999998636
100
AcDbArc
 50
180.0
 51
240.0183606311408
  0
ARC
  5
169
102
{ACAD_REACTORS
330
1BE
102
}
330
1F
100
AcDbEntity
  8
1
  6
Continuous
 62
     7
100
AcDbCircle
 10
86.12031593344412
 20
87.42904963038936
 30
0.0
 40
0.0999999999999177
100
AcDbArc
 50
209.9999999999595
 51
330.0000000000404
  0
ARC
  5
16A
330
1F
100
AcDbEntity
  8
1
  6
Continuous
 62
     7
100
AcDbCircle
 10
198.247204295226
 20
147.6510358733312
 30
0.0
 40
2.999999999999886
100
AcDbArc
 50
91.49999999998649
 51
179.0000000000009
  0
MTEXT
  5
16B
330
1F
100
AcDbEntity
  8
1
 62
     7
100
AcDbMText
 10
120.6
 20
8.75
 30
0.0
 40
3.0
 41
0.0
 71
     4
 72
     1
  1
T.Tedeschi
  7
CONVERTER_11
 73
     1
 44
1.32052821128451
  0
MTEXT
  5
16C
330
1F
100
AcDbEntity
  8
1
 62
     7
100
AcDbMText
 10
120.6
 20
16.26063942075601
 30
0.0
 40
3.0
 41
0.0
 71
     4
 72
     1
  1
12/09/08
  7
CONVERTER_11
 73
     1
 44
1.32052821128451
  0
MTEXT
  5
16D
330
1F
100
AcDbEntity
  8
1
 62
     7
100
AcDbMText
 10
256.676300688743
 20
10.06063942075602
 30
0.0
 40
4.5
 41
0.0
 71
     5
 72
     1
  1
1:1
  7
CONVERTER_11
 73
     1
 44
1.32052821128451
  0
MTEXT
  5
16E
330
1F
100
AcDbEntity
  8
1
 62
     7
100
AcDbMText
 10
144.2763006887432
 20
12.5
 30
0.0
 40
4.5
 41
0.0
 71
     4
 72
     1
  1
MFV 10 L220\Phood top entry 2 x M20
  7
CONVERTER_11
 73
     1
 44
0.90036014405762
  0
DIMENSION
  5
17A
330
1F
100
AcDbEntity
  8
1
100
AcDbDimension
  2
*D3
 10
40.61876729147753
 20
58.351145963639
 30
0.0
 11
86.12031593344375
 21
61.851145963639
 31
0.0
 70
    32
  1
<>
 71
     5
 42
-1.0
 53
0.00013888888889
  3
ME10_DIM_10
100
AcDbAlignedDimension
 13
131.6218645754101
 23
83.70618803085085
 33
0.0
 14
40.61876729147753
 24
83.70618803085085
 34
0.0
100
AcDbRotatedDimension
  0
DIMENSION
  5
185
330
1F
100
AcDbEntity
  8
1
100
AcDbDimension
  2
*D4
 10
89.12031593344443
 20
158.19645481858
 30
0.0
 11
99.12031593344443
 21
161.69645481858
 31
0.0
 70
    32
  1
<>
 71
     5
 42
-1.0
 53
0.00013888888889
  3
ME10_DIM_11
100
AcDbAlignedDimension
 13
109.1203159334444
 23
151.1061880308509
 33
0.0
 14
89.12031593344443
 24
151.1061880308508
 34
0.0
100
AcDbRotatedDimension
  0
DIMENSION
  5
190
330
1F
100
AcDbEntity
  8
1
100
AcDbDimension
  2
*D5
 10
63.12031593344466
 20
158.2927674609711
 30
0.0
 11
73.12031593344466
 21
161.7927674609711
 31
0.0
 70
    32
  1
<>
 71
     5
 42
-1.0
 53
0.00013888888889
  3
ME10_DIM_12
100
AcDbAlignedDimension
 13
83.12031593344466
 23
151.1061880308509
 33
0.0
 14
63.12031593344466
 24
151.1061880308508
 34
0.0
100
AcDbRotatedDimension
  0
DIMENSION
  5
19B
330
1F
100
AcDbEntity
  8
1
100
AcDbDimension
  2
*D6
 10
73.12031593344432
 20
171.0298745466091
 30
0.0
 11
86.12031593344443
 21
174.5298745466091
 31
0.0
 70
    32
  1
<>
 71
     5
 42
-1.0
 53
0.00013888888889
  3
ME10_DIM_13
100
AcDbAlignedDimension
 13
99.12031593344454
 23
168.8061880308507
 33
0.0
 14
73.12031593344432
 24
168.8061880308507
 34
0.0
100
AcDbRotatedDimension
  0
DIMENSION
  5
1A6
330
1F
100
AcDbEntity
  8
1
100
AcDbDimension
  2
*D7
 10
49.62031593344364
 20
71.03514197096763
 30
0.0
 11
86.12031593344386
 21
74.53514197096763
 31
0.0
 70
    32
  1
<>
 71
     5
 42
-1.0
 53
0.00013888888889
  3
ME10_DIM_14
100
AcDbAlignedDimension
 13
122.6203159334441
 23
81.35191084279393
 33
0.0
 14
49.62031593344364
 24
81.35191084279393
 34
0.0
100
AcDbRotatedDimension
  0
DIMENSION
  5
1B1
330
1F
100
AcDbEntity
  8
1
100
AcDbDimension
  2
*D8
 10
261.0918137027601
 20
151.1061880308612
 30
0.0
 11
257.5918137027601
 21
116.106188030856
 31
0.0
 70
    32
  1
<>
 71
     5
 42
-1.0
 53
90.0
  3
ME10_DIM_15
100
AcDbAlignedDimension
 13
235.68949178576
 23
81.10618803085083
 33
0.0
 14
215.5894917857601
 24
151.1061880308612
 34
0.0
 50
90.0
100
AcDbRotatedDimension
  0
DIMENSION
  5
1BC
330
1F
100
AcDbEntity
  8
1
100
AcDbDimension
  2
*D9
 10
194.0894917857601
 20
71.26261442384202
 30
0.0
 11
215.5894917857601
 21
74.76261442384202
 31
0.0
 70
    32
  1
<>
 71
     5
 42
-1.0
 53
0.00013888888889
  3
ME10_DIM_16
100
AcDbAlignedDimension
 13
237.0894917857601
 23
81.35191122992916
 33
0.0
 14
194.0894917857601
 24
81.35191122992916
 34
0.0
100
AcDbRotatedDimension
  0
HATCH
  5
1BD
330
1F
100
AcDbEntity
  8
1
  6
Continuous
 62
     3
100
AcDbHatch
 10
0.0
 20
0.0
 30
0.0
210
0.0
220
0.0
230
1.0
  2
SOLID
 70
     1
 71
     1
 91
        1
 92
        1
 93
       14
 72
     1
 10
87.82026042414194
 20
88.85578684369966
 11
88.62026042414189
 21
88.39424838216095
 72
     2
 10
88.52031593344398
 20
88.22101126495144
 40
0.1999999999999619
 50
299.9816393688776
 51
479.9816393688531
 73
     0
 72
     1
 10
88.42037144274607
 20
88.04777414774176
 11
87.92031593344407
 21
88.33626771080054
 72
     1
 10
87.92031593344407
 20
88.33626771080054
 11
87.92031593344407
 21
87.42904963038936
 72
     1
 10
87.92031593344407
 20
87.42904963038936
 11
88.52031593344398
 21
87.42904963038936
 72
     2
 10
88.52031593344398
 20
87.22904963038934
 40
0.2000000000000739
 50
270.0
 51
450.0
 73
     0
 72
     1
 10
88.52031593344398
 20
87.02904963038927
 11
87.92031593344407
 21
87.02904963038947
 72
     1
 10
87.92031593344407
 20
87.02904963038947
 11
87.92031593344407
 21
86.12183154997805
 72
     1
 10
87.92031593344407
 20
86.12183154997805
 11
88.42037144274607
 21
86.41032511303715
 72
     2
 10
88.52031593344398
 20
86.23708799582747
 40
0.1999999999999865
 50
240.0183606311469
 51
420.0183606311509
 73
     0
 72
     1
 10
88.62026042414189
 20
86.06385087861776
 11
87.82026042414194
 21
85.60231241707916
 72
     2
 10
87.72031593344414
 20
85.77554953428884
 40
0.2000000000001592
 50
60.01836063117509
 51
180.0
 73
     0
 72
     1
 10
87.52031593344398
 20
85.77554953428884
 11
87.52031593344398
 21
88.68254972648987
 72
     2
 10
87.72031593344403
 20
88.68254972648987
 40
0.2000000000000604
 50
180.0
 51
299.9816393688369
 73
     0
 97
       14
330
EA
330
14B
330
E9
330
E8
330
E7
330
14A
330
E6
330
E5
330
E4
330
149
330
E3
330
164
330
E2
330
165
 75
     0
 76
     1
 98
        1
 10
0.0
 20
0.0
  0
HATCH
  5
1BE
330
1F
100
AcDbEntity
  8
1
  6
Continuous
 62
     3
100
AcDbHatch
 10
0.0
 20
0.0
 30
0.0
210
0.0
220
0.0
230
1.0
  2
SOLID
 70
     1
 71
     1
 91
        1
 92
        1
 93
       13
 72
     1
 10
85.4169761436182
 20
89.24726988135276
 11
86.12031593344412
 21
88.02904963038947
 72
     1
 10
86.12031593344412
 20
88.02904963038947
 11
86.82365572327015
 21
89.24726988135276
 72
     2
 10
86.96133620595882
 20
89.16778001761014
 40
0.1589797274853026
 50
210.0000000000512
 51
360.0
 73
     0
 72
     1
 10
87.12031593344412
 20
89.16778001761014
 11
87.12031593344412
 21
85.31401107275056
 72
     2
 10
86.92031593344407
 20
85.31401107275056
 40
0.2000000000000455
 50
0.0
 51
180.0
 73
     0
 72
     1
 10
86.72031593344403
 20
85.31401107275056
 11
86.72031593344403
 21
88.26828011493066
 72
     1
 10
86.72031593344403
 20
88.26828011493066
 11
86.20691847382253
 21
87.37904963038946
 72
     2
 10
86.12031593344412
 20
87.42904963038936
 40
0.0999999999999177
 50
29.99999999995956
 51
150.0000000000405
 73
     0
 72
     1
 10
86.03371339306571
 20
87.37904963038946
 11
85.52031593344398
 21
88.26828011493066
 72
     1
 10
85.52031593344398
 20
88.26828011493066
 11
85.52031593344398
 21
86.23760067396904
 72
     2
 10
85.32031593344416
 20
86.23760067396904
 40
0.2000000000000455
 50
0.0
 51
180.0
 73
     0
 72
     1
 10
85.12031593344412
 20
86.23760067396904
 11
85.12031593344412
 21
89.16778001761014
 72
     2
 10
85.27929566092931
 20
89.16778001761014
 40
0.1589797274851963
 50
180.0
 51
329.9999999999897
 73
     0
 97
       13
330
F6
330
F1
330
150
330
F2
330
151
330
F3
330
FC
330
169
330
FB
330
F4
330
152
330
F5
330
153
 75
     0
 76
     1
 98
        1
 10
0.0
 20
0.0
  0
HATCH
  5
1BF
330
1F
100
AcDbEntity
  8
1
  6
Continuous
 62
     3
100
AcDbHatch
 10
0.0
 20
0.0
 30
0.0
210
0.0
220
0.0
230
1.0
  2
SOLID
 70
     1
 71
     1
 91
        1
 92
        1
 93
        7
 72
     1
 10
84.72031593344403
 20
88.68254972648987
 11
84.72031593344403
 21
85.89106231920894
 72
     1
 10
84.72031593344403
 20
85.89106231920894
 11
86.02026042414198
 21
85.14109434380626
 72
     2
 10
85.92031593344407
 20
84.96785722659646
 40
0.1999999999999865
 50
299.9816393688369
 51
479.9816393688491
 73
     0
 72
     1
 10
85.82037144274616
 20
84.79462010938676
 11
84.52042695204821
 21
85.54458808478967
 72
     2
 10
84.72031593344403
 20
85.89106231920894
 40
0.3999999999998636
 50
119.9816393688592
 51
180.0
 73
     0
 72
     1
 10
84.32031593344416
 20
85.89106231920894
 11
84.32031593344416
 21
88.68254972648987
 72
     2
 10
84.5203159334441
 20
88.68254972648987
 40
0.1999999999999318
 50
180.0
 51
360.0
 73
     0
 97
        7
330
EF
330
EE
330
14E
330
ED
330
168
330
F0
330
14F
 75
     0
 76
     1
 98
        1
 10
0.0
 20
0.0
  0
HATCH
  5
1C0
330
1F
100
AcDbEntity
  8
1
  6
Continuous
 62
     3
100
AcDbHatch
 10
0.0
 20
0.0
 30
0.0
210
0.0
220
0.0
230
1.0
  2
SOLID
 70
     1
 71
     1
 91
        1
 92
        1
 93
        4
 72
     1
 10
83.92031593344407
 20
88.22101126495144
 11
83.92031593344407
 21
86.23708799582747
 72
     2
 10
83.72031593344403
 20
86.23708799582747
 40
0.2000000000000455
 50
0.0
 51
180.0
 73
     0
 72
     1
 10
83.52031593344398
 20
86.23708799582747
 11
83.52031593344398
 21
88.22101126495144
 72
     2
 10
83.72031593344403
 20
88.22101126495144
 40
0.2000000000000455
 50
180.0
 51
360.0
 73
     0
 97
        4
330
EC
330
14C
330
EB
330
14D
 75
     0
 76
     1
 98
        1
 10
0.0
 20
0.0
  0
ENDSEC
  0
SECTION
  2
OBJECTS
  0
DICTIONARY
  5
C
330
0
100
AcDbDictionary
281
     1
  3
ACAD_GROUP
350
D
  3
ACAD_LAYOUT
350
1A
  3
ACAD_MATERIAL
350
3B
  3
ACAD_MLEADERSTYLE
350
1C3
  3
ACAD_MLINESTYLE
350
17
  3
ACAD_PLOTSETTINGS
350
19
  3
ACAD_PLOTSTYLENAME
350
E
  3
ACAD_VISUALSTYLE
350
2A
  3
AcDbVariableDictionary
350
1C1
  0
DICTIONARY
  5
D
102
{ACAD_REACTORS
330
C
102
}
330
C
100
AcDbDictionary
281
     1
  0
DICTIONARY
  5
1A
102
{ACAD_REACTORS
330
C
102
}
330
C
100
AcDbDictionary
281
     1
  3
Layout1
350
1E
  3
Layout2
350
26
  3
Model
350
22
  0
DICTIONARY
  5
3B
102
{ACAD_REACTORS
330
C
102
}
330
C
100
AcDbDictionary
281
     1
  3
ByBlock
350
3D
  3
ByLayer
350
3C
  3
Global
350
3E
  0
DICTIONARY
  5
1C3
102
{ACAD_REACTORS
330
C
102
}
330
C
100
AcDbDictionary
281
     1
  0
DICTIONARY
  5
17
102
{ACAD_REACTORS
330
C
102
}
330
C
100
AcDbDictionary
281
     1
  3
Standard
350
18
  0
DICTIONARY
  5
19
102
{ACAD_REACTORS
330
C
102
}
330
C
100
AcDbDictionary
281
     1
  0
ACDBDICTIONARYWDFLT
  5
E
102
{ACAD_REACTORS
330
C
102
}
330
C
100
AcDbDictionary
281
     1
  3
Normal
350
F
100
AcDbDictionaryWithDefault
340
F
  0
DICTIONARY
  5
2A
102
{ACAD_REACTORS
330
C
102
}
330
C
100
AcDbDictionary
281
     1
  3
2dWireframe
350
2F
  3
3D Hidden
350
31
  3
3dWireframe
350
30
  3
Basic
350
32
  3
Brighten
350
36
  3
ColorChange
350
3A
  3
Conceptual
350
34
  3
Dim
350
35
  3
Facepattern
350
39
  3
Flat
350
2B
  3
FlatWithEdges
350
2C
  3
Gouraud
350
2D
  3
GouraudWithEdges
350
2E
  3
Linepattern
350
38
  3
Realistic
350
33
  3
Thicken
350
37
  0
DICTIONARY
  5
1C1
102
{ACAD_REACTORS
330
C
102
}
330
C
100
AcDbDictionary
281
     1
  3
DIMASSOC
350
1C4
  3
HIDETEXT
350
1C5
  0
LAYOUT
  5
1E
102
{ACAD_REACTORS
330
1A
102
}
330
1A
100
AcDbPlotSettings
  1

  2
none_device
  4

  6

 40
0.0
 41
0.0
 42
0.0
 43
0.0
 44
0.0
 45
0.0
 46
0.0
 47
0.0
 48
0.0
 49
0.0
140
0.0
141
0.0
142
1.0
143
1.0
 70
   688
 72
     0
 73
     0
 74
     5
  7

 75
    16
147
1.0
148
0.0
149
0.0
100
AcDbLayout
  1
Layout1
 70
     1
 71
     1
 10
0.0
 20
0.0
 11
12.0
 21
9.0
 12
0.0
 22
0.0
 32
0.0
 14
1.00000000000000E+20
 24
1.00000000000000E+20
 34
1.00000000000000E+20
 15
-1.00000000000000E+20
 25
-1.00000000000000E+20
 35
-1.00000000000000E+20
146
0.0
 13
0.0
 23
0.0
 33
0.0
 16
1.0
 26
0.0
 36
0.0
 17
0.0
 27
1.0
 37
0.0
 76
     0
330
1B
  0
LAYOUT
  5
26
102
{ACAD_REACTORS
330
1A
102
}
330
1A
100
AcDbPlotSettings
  1

  2
none_device
  4

  6

 40
0.0
 41
0.0
 42
0.0
 43
0.0
 44
0.0
 45
0.0
 46
0.0
 47
0.0
 48
0.0
 49
0.0
140
0.0
141
0.0
142
1.0
143
1.0
 70
   688
 72
     0
 73
     0
 74
     5
  7

 75
    16
147
1.0
148
0.0
149
0.0
100
AcDbLayout
  1
Layout2
 70
     1
 71
     2
 10
0.0
 20
0.0
 11
0.0
 21
0.0
 12
0.0
 22
0.0
 32
0.0
 14
0.0
 24
0.0
 34
0.0
 15
0.0
 25
0.0
 35
0.0
146
0.0
 13
0.0
 23
0.0
 33
0.0
 16
1.0
 26
0.0
 36
0.0
 17
0.0
 27
1.0
 37
0.0
 76
     0
330
23
  0
LAYOUT
  5
22
102
{ACAD_REACTORS
330
1A
102
}
330
1A
100
AcDbPlotSettings
  1

  2
none_device
  4

  6

 40
0.0
 41
0.0
 42
0.0
 43
0.0
 44
0.0
 45
0.0
 46
0.0
 47
0.0
 48
0.0
 49
0.0
140
0.0
141
0.0
142
1.0
143
1.0
 70
  1712
 72
     0
 73
     0
 74
     0
  7

 75
     0
147
1.0
148
0.0
149
0.0
100
AcDbLayout
  1
Model
 70
     1
 71
     0
 10
0.0
 20
0.0
 11
12.0
 21
9.0
 12
0.0
 22
0.0
 32
0.0
 14
0.0
 24
0.0
 34
0.0
 15
297.0000000000001
 25
210.0000000000001
 35
0.0
146
0.0
 13
0.0
 23
0.0
 33
0.0
 16
1.0
 26
0.0
 36
0.0
 17
0.0
 27
1.0
 37
0.0
 76
     0
330
1F
331
29
  0
MATERIAL
  5
3D
102
{ACAD_REACTORS
330
3B
102
}
102
{ACAD_XDICTIONARY
360
1E8
102
}
330
3B
100
AcDbMaterial
  1
ByBlock
  0
MATERIAL
  5
3C
102
{ACAD_REACTORS
330
3B
102
}
102
{ACAD_XDICTIONARY
360
1E6
102
}
330
3B
100
AcDbMaterial
  1
ByLayer
  0
MATERIAL
  5
3E
102
{ACAD_REACTORS
330
3B
102
}
102
{ACAD_XDICTIONARY
360
1EA
102
}
330
3B
100
AcDbMaterial
  1
Global
  0
MLINESTYLE
  5
18
102
{ACAD_REACTORS
330
17
102
}
330
17
100
AcDbMlineStyle
  2
Standard
 70
     0
  3

 62
   256
 51
90.0
 52
90.0
 71
     2
 49
0.5
 62
   256
  6
BYLAYER
 49
-0.5
 62
   256
  6
BYLAYER
  0
ACDBPLACEHOLDER
  5
F
102
{ACAD_REACTORS
330
E
102
}
330
E
  0
VISUALSTYLE
  5
2F
102
{ACAD_REACTORS
330
2A
102
}
102
{ACAD_XDICTIONARY
360
1CE
102
}
330
2A
100
AcDbVisualStyle
  2
2dWireframe
 70
     4
 71
     0
 72
     2
 73
     0
 90
        0
 40
-0.6
 41
-30.0
 62
     5
 63
     7
 74
     1
 91
        4
 64
     7
 65
   257
 75
     1
175
     1
 42
1.0
 92
        0
 66
   257
 43
1.0
 76
     1
 77
     6
 78
     2
 67
     7
 79
     5
170
     0
171
     0
290
     0
174
     0
 93
        1
 44
0.0
173
     0
291
     0
 45
0.0
1001
ACAD
1000
AcDbSavedByObjectVersion
1070
     0
  0
VISUALSTYLE
  5
31
102
{ACAD_REACTORS
330
2A
102
}
102
{ACAD_XDICTIONARY
360
1D2
102
}
330
2A
100
AcDbVisualStyle
  2
3D Hidden
 70
     6
 71
     1
 72
     2
 73
     2
 90
        0
 40
-0.6
 41
-30.0
 62
     5
 63
     7
 74
     2
 91
        2
 64
     7
 65
   257
 75
     2
175
     1
 42
40.0
 92
        0
 66
   257
 43
1.0
 76
     1
 77
     6
 78
     2
 67
     7
 79
     3
170
     0
171
     0
290
     0
174
     0
 93
        1
 44
0.0
173
     0
291
     0
 45
0.0
1001
ACAD
1000
AcDbSavedByObjectVersion
1070
     0
  0
VISUALSTYLE
  5
30
102
{ACAD_REACTORS
330
2A
102
}
102
{ACAD_XDICTIONARY
360
1D0
102
}
330
2A
100
AcDbVisualStyle
  2
3dWireframe
 70
     5
 71
     0
 72
     2
 73
     0
 90
        0
 40
-0.6
 41
-30.0
 62
     5
 63
     7
 74
     1
 91
        4
 64
     7
 65
   257
 75
     1
175
     1
 42
1.0
 92
        0
 66
   257
 43
1.0
 76
     1
 77
     6
 78
     2
 67
     7
 79
     5
170
     0
171
     0
290
     0
174
     0
 93
        1
 44
0.0
173
     0
291
     0
 45
0.0
1001
ACAD
1000
AcDbSavedByObjectVersion
1070
     0
  0
VISUALSTYLE
  5
32
102
{ACAD_REACTORS
330
2A
102
}
102
{ACAD_XDICTIONARY
360
1D4
102
}
330
2A
100
AcDbVisualStyle
  2
Basic
 70
     7
 71
     1
 72
     0
 73
     1
 90
        0
 40
-0.6
 41
-30.0
 62
     5
 63
     7
 74
     0
 91
        4
 64
     7
 65
   257
 75
     1
175
     1
 42
1.0
 92
        8
 66
     7
 43
1.0
 76
     1
 77
     6
 78
     2
 67
     7
 79
     5
170
     0
171
     0
290
     0
174
     0
 93
        1
 44
0.0
173
     0
291
     1
 45
0.0
1001
ACAD
1000
AcDbSavedByObjectVersion
1070
     0
  0
VISUALSTYLE
  5
36
102
{ACAD_REACTORS
330
2A
102
}
102
{ACAD_XDICTIONARY
360
1DC
102
}
330
2A
100
AcDbVisualStyle
  2
Brighten
 70
    12
 71
     2
 72
     2
 73
     0
 90
        0
 40
-0.6
 41
-30.0
 62
     5
 63
     7
 74
     1
 91
        4
 64
     7
 65
   257
 75
     1
175
     1
 42
1.0
 92
        8
 66
     7
 43
1.0
 76
     1
 77
     6
 78
     2
 67
     7
 79
     5
170
     0
171
     0
290
     0
174
     0
 93
        1
 44
50.0
173
     0
291
     1
 45
0.0
1001
ACAD
1000
AcDbSavedByObjectVersion
1070
     0
  0
VISUALSTYLE
  5
3A
102
{ACAD_REACTORS
330
2A
102
}
102
{ACAD_XDICTIONARY
360
1E4
102
}
330
2A
100
AcDbVisualStyle
  2
ColorChange
 70
    16
 71
     2
 72
     2
 73
     3
 90
        0
 40
-0.6
 41
-30.0
 62
     5
 63
     8
 74
     1
 91
        4
 64
     7
 65
   257
 75
     1
175
     1
 42
1.0
 92
        8
 66
     8
 43
1.0
 76
     1
 77
     6
 78
     2
 67
     7
 79
     5
170
     0
171
     0
290
     0
174
     0
 93
        1
 44
0.0
173
     0
291
     1
 45
0.0
1001
ACAD
1000
AcDbSavedByObjectVersion
1070
     0
  0
VISUALSTYLE
  5
34
102
{ACAD_REACTORS
330
2A
102
}
102
{ACAD_XDICTIONARY
360
1D8
102
}
330
2A
100
AcDbVisualStyle
  2
Conceptual
 70
     9
 71
     3
 72
     2
 73
     0
 90
        0
 40
-0.6
 41
-30.0
 62
     5
 63
     7
 74
     2
 91
        2
 64
     7
 65
   257
 75
     1
175
     1
 42
40.0
 92
        8
 66
     7
 43
1.0
 76
     1
 77
     6
 78
     2
 67
     7
 79
     3
170
     0
171
     0
290
     0
174
     0
 93
        1
 44
0.0
173
     0
291
     0
 45
0.0
1001
ACAD
1000
AcDbSavedByObjectVersion
1070
     0
  0
VISUALSTYLE
  5
35
102
{ACAD_REACTORS
330
2A
102
}
102
{ACAD_XDICTIONARY
360
1DA
102
}
330
2A
100
AcDbVisualStyle
  2
Dim
 70
    11
 71
     2
 72
     2
 73
     0
 90
        0
 40
-0.6
 41
-30.0
 62
     5
 63
     7
 74
     1
 91
        4
 64
     7
 65
   257
 75
     1
175
     1
 42
1.0
 92
        8
 66
     7
 43
1.0
 76
     1
 77
     6
 78
     2
 67
     7
 79
     5
170
     0
171
     0
290
     0
174
     0
 93
        1
 44
-50.0
173
     0
291
     1
 45
0.0
1001
ACAD
1000
AcDbSavedByObjectVersion
1070
     0
  0
VISUALSTYLE
  5
39
102
{ACAD_REACTORS
330
2A
102
}
102
{ACAD_XDICTIONARY
360
1E2
102
}
330
2A
100
AcDbVisualStyle
  2
Facepattern
 70
    15
 71
     2
 72
     2
 73
     0
 90
        0
 40
-0.6
 41
-30.0
 62
     5
 63
     7
 74
     1
 91
        4
 64
     7
 65
   257
 75
     1
175
     1
 42
1.0
 92
        8
 66
     7
 43
1.0
 76
     1
 77
     6
 78
     2
 67
     7
 79
     5
170
     0
171
     0
290
     0
174
     0
 93
        1
 44
0.0
173
     0
291
     1
 45
0.0
1001
ACAD
1000
AcDbSavedByObjectVersion
1070
     0
  0
VISUALSTYLE
  5
2B
102
{ACAD_REACTORS
330
2A
102
}
102
{ACAD_XDICTIONARY
360
1C6
102
}
330
2A
100
AcDbVisualStyle
  2
Flat
 70
     0
 71
     2
 72
     1
 73
     1
 90
        2
 40
-0.6
 41
30.0
 62
     5
 63
     7
 74
     0
 91
        4
 64
     7
 65
   257
 75
     1
175
     1
 42
1.0
 92
        8
 66
     7
 43
1.0
 76
     1
 77
     6
 78
     2
 67
     7
 79
     5
170
     0
171
     0
290
     0
174
     0
 93
       13
 44
0.0
173
     0
291
     1
 45
0.0
1001
ACAD
1000
AcDbSavedByObjectVersion
1070
     0
  0
VISUALSTYLE
  5
2C
102
{ACAD_REACTORS
330
2A
102
}
102
{ACAD_XDICTIONARY
360
1C8
102
}
330
2A
100
AcDbVisualStyle
  2
FlatWithEdges
 70
     1
 71
     2
 72
     1
 73
     1
 90
        2
 40
-0.6
 41
30.0
 62
     5
 63
     7
 74
     1
 91
        4
 64
     7
 65
   257
 75
     1
175
     1
 42
1.0
 92
        0
 66
   257
 43
1.0
 76
     1
 77
     6
 78
     2
 67
     7
 79
     5
170
     0
171
     0
290
     0
174
     0
 93
       13
 44
0.0
173
     0
291
     1
 45
0.0
1001
ACAD
1000
AcDbSavedByObjectVersion
1070
     0
  0
VISUALSTYLE
  5
2D
102
{ACAD_REACTORS
330
2A
102
}
102
{ACAD_XDICTIONARY
360
1CA
102
}
330
2A
100
AcDbVisualStyle
  2
Gouraud
 70
     2
 71
     2
 72
     2
 73
     1
 90
        2
 40
-0.6
 41
30.0
 62
     5
 63
     7
 74
     0
 91
        4
 64
     7
 65
   257
 75
     1
175
     1
 42
1.0
 92
        0
 66
     7
 43
1.0
 76
     1
 77
     6
 78
     2
 67
     7
 79
     5
170
     0
171
     0
290
     0
174
     0
 93
       13
 44
0.0
173
     0
291
     1
 45
0.0
1001
ACAD
1000
AcDbSavedByObjectVersion
1070
     0
  0
VISUALSTYLE
  5
2E
102
{ACAD_REACTORS
330
2A
102
}
102
{ACAD_XDICTIONARY
360
1CC
102
}
330
2A
100
AcDbVisualStyle
  2
GouraudWithEdges
 70
     3
 71
     2
 72
     2
 73
     1
 90
        2
 40
-0.6
 41
30.0
 62
     5
 63
     7
 74
     1
 91
        4
 64
     7
 65
   257
 75
     1
175
     1
 42
1.0
 92
        0
 66
   257
 43
1.0
 76
     1
 77
     6
 78
     2
 67
     7
 79
     5
170
     0
171
     0
290
     0
174
     0
 93
       13
 44
0.0
173
     0
291
     1
 45
0.0
1001
ACAD
1000
AcDbSavedByObjectVersion
1070
     0
  0
VISUALSTYLE
  5
38
102
{ACAD_REACTORS
330
2A
102
}
102
{ACAD_XDICTIONARY
360
1E0
102
}
330
2A
100
AcDbVisualStyle
  2
Linepattern
 70
    14
 71
     2
 72
     2
 73
     0
 90
        0
 40
-0.6
 41
-30.0
 62
     5
 63
     7
 74
     1
 91
        4
 64
     7
 65
   257
 75
     7
175
     7
 42
1.0
 92
        8
 66
     7
 43
1.0
 76
     1
 77
     6
 78
     2
 67
     7
 79
     5
170
     0
171
     0
290
     0
174
     0
 93
        1
 44
0.0
173
     0
291
     1
 45
0.0
1001
ACAD
1000
AcDbSavedByObjectVersion
1070
     0
  0
VISUALSTYLE
  5
33
102
{ACAD_REACTORS
330
2A
102
}
102
{ACAD_XDICTIONARY
360
1D6
102
}
330
2A
100
AcDbVisualStyle
  2
Realistic
 70
     8
 71
     2
 72
     2
 73
     0
 90
        0
 40
-0.6
 41
-30.0
 62
     5
 63
     7
 74
     1
 91
        0
 64
     7
 65
   257
 75
     1
175
     1
 42
1.0
 92
        8
 66
     8
 43
1.0
 76
     1
 77
     6
 78
     2
 67
     7
 79
     5
170
     0
171
     0
290
     0
174
     0
 93
       13
 44
0.0
173
     0
291
     0
 45
0.0
1001
ACAD
1000
AcDbSavedByObjectVersion
1070
     0
  0
VISUALSTYLE
  5
37
102
{ACAD_REACTORS
330
2A
102
}
102
{ACAD_XDICTIONARY
360
1DE
102
}
330
2A
100
AcDbVisualStyle
  2
Thicken
 70
    13
 71
     2
 72
     2
 73
     0
 90
        0
 40
-0.6
 41
-30.0
 62
     5
 63
     7
 74
     1
 91
        4
 64
     7
 65
   257
 75
     1
175
     1
 42
1.0
 92
       12
 66
     7
 43
1.0
 76
     1
 77
     6
 78
     2
 67
     7
 79
     5
170
     0
171
     0
290
     0
174
     0
 93
        1
 44
0.0
173
     0
291
     1
 45
0.0
1001
ACAD
1000
AcDbSavedByObjectVersion
1070
     0
  0
DICTIONARYVAR
  5
1C4
102
{ACAD_REACTORS
330
1C1
102
}
330
1C1
100
DictionaryVariables
280
     0
  1
2
  0
DICTIONARYVAR
  5
1C5
102
{ACAD_REACTORS
330
1C1
102
}
330
1C1
100
DictionaryVariables
280
     0
  1
1
  0
DICTIONARY
  5
1E8
330
3D
100
AcDbDictionary
280
     1
281
     1
  3
ACAD_XREC_ROUNDTRIP
360
1E9
  0
DICTIONARY
  5
1E6
330
3C
100
AcDbDictionary
280
     1
281
     1
  3
ACAD_XREC_ROUNDTRIP
360
1E7
  0
DICTIONARY
  5
1EA
330
3E
100
AcDbDictionary
280
     1
281
     1
  3
ACAD_XREC_ROUNDTRIP
360
1EB
  0
DICTIONARY
  5
1CE
330
2F
100
AcDbDictionary
280
     1
281
     1
  3
ACAD_XREC_ROUNDTRIP
360
1CF
  0
DICTIONARY
  5
1D2
330
31
100
AcDbDictionary
280
     1
281
     1
  3
ACAD_XREC_ROUNDTRIP
360
1D3
  0
DICTIONARY
  5
1D0
330
30
100
AcDbDictionary
280
     1
281
     1
  3
ACAD_XREC_ROUNDTRIP
360
1D1
  0
DICTIONARY
  5
1D4
330
32
100
AcDbDictionary
280
     1
281
     1
  3
ACAD_XREC_ROUNDTRIP
360
1D5
  0
DICTIONARY
  5
1DC
330
36
100
AcDbDictionary
280
     1
281
     1
  3
ACAD_XREC_ROUNDTRIP
360
1DD
  0
DICTIONARY
  5
1E4
330
3A
100
AcDbDictionary
280
     1
281
     1
  3
ACAD_XREC_ROUNDTRIP
360
1E5
  0
DICTIONARY
  5
1D8
330
34
100
AcDbDictionary
280
     1
281
     1
  3
ACAD_XREC_ROUNDTRIP
360
1D9
  0
DICTIONARY
  5
1DA
330
35
100
AcDbDictionary
280
     1
281
     1
  3
ACAD_XREC_ROUNDTRIP
360
1DB
  0
DICTIONARY
  5
1E2
330
39
100
AcDbDictionary
280
     1
281
     1
  3
ACAD_XREC_ROUNDTRIP
360
1E3
  0
DICTIONARY
  5
1C6
330
2B
100
AcDbDictionary
280
     1
281
     1
  3
ACAD_XREC_ROUNDTRIP
360
1C7
  0
DICTIONARY
  5
1C8
330
2C
100
AcDbDictionary
280
     1
281
     1
  3
ACAD_XREC_ROUNDTRIP
360
1C9
  0
DICTIONARY
  5
1CA
330
2D
100
AcDbDictionary
280
     1
281
     1
  3
ACAD_XREC_ROUNDTRIP
360
1CB
  0
DICTIONARY
  5
1CC
330
2E
100
AcDbDictionary
280
     1
281
     1
  3
ACAD_XREC_ROUNDTRIP
360
1CD
  0
DICTIONARY
  5
1E0
330
38
100
AcDbDictionary
280
     1
281
     1
  3
ACAD_XREC_ROUNDTRIP
360
1E1
  0
DICTIONARY
  5
1D6
330
33
100
AcDbDictionary
280
     1
281
     1
  3
ACAD_XREC_ROUNDTRIP
360
1D7
  0
DICTIONARY
  5
1DE
330
37
100
AcDbDictionary
280
     1
281
     1
  3
ACAD_XREC_ROUNDTRIP
360
1DF
  0
XRECORD
  5
1E9
102
{ACAD_REACTORS
330
1E8
102
}
330
1E8
100
AcDbXrecord
280
     1
102
MATERIAL
148
0.0
149
0.0
149
0.0
 93
        0
 94
      127
282
     0
 72
     1
 77
     1
171
     1
175
     1
179
     1
273
     0
  0
XRECORD
  5
1E7
102
{ACAD_REACTORS
330
1E6
102
}
330
1E6
100
AcDbXrecord
280
     1
102
MATERIAL
148
0.0
149
0.0
149
0.0
 93
        0
 94
      127
282
     0
 72
     1
 77
     1
171
     1
175
     1
179
     1
273
     0
  0
XRECORD
  5
1EB
102
{ACAD_REACTORS
330
1EA
102
}
330
1EA
100
AcDbXrecord
280
     1
102
MATERIAL
148
0.0
149
0.0
149
0.0
 93
        0
 94
      127
282
     0
 72
     1
 77
     1
171
     1
175
     1
179
     1
273
     0
  0
XRECORD
  5
1CF
102
{ACAD_REACTORS
330
1CE
102
}
330
1CE
100
AcDbXrecord
280
     1
102
RTVSPropertyOp0
 70
     1
102
RTVSPropertyOp1
 70
     1
102
RTVSPropertyOp2
 70
     1
102
RTVSPropertyOp3
 70
     1
102
RTVSPropertyOp4
 70
     1
102
RTVSPropertyOp5
 70
     1
102
RTVSPropertyOp6
 70
     1
102
RTVSPropertyOp7
 70
     1
102
RTVSPropertyOp8
 70
     1
102
RTVSPropertyOp9
 70
     1
102
RTVSPropertyOp10
 70
     1
102
RTVSPropertyOp11
 70
     1
102
RTVSPropertyOp12
 70
     1
102
RTVSPropertyOp13
 70
     1
102
RTVSPropertyOp14
 70
     1
102
RTVSPropertyOp15
 70
     1
102
RTVSPropertyOp16
 70
     1
102
RTVSPropertyOp17
 70
     1
102
RTVSPropertyOp18
 70
     1
102
RTVSPropertyOp19
 70
     1
102
RTVSPropertyOp20
 70
     1
102
RTVSPropertyOp21
 70
     1
102
RTVSPropertyOp22
 70
     1
102
RTVSPropertyOp23
 70
     1
102
RTVSPropertyOp24
 70
     1
102
RTVSPropertyOp25
 70
     1
102
RTVSPropertyOp26
 70
     1
102
RTVSPropertyOp27
 70
     1
102
RTVSPropertyOp28
 70
     1
102
RTVSPropertyOp29
 70
     1
102
RTVSPropertyOp30
 70
     1
102
RTVSPropertyOp31
 70
     1
102
RTVSPropertyOp32
 70
     1
  0
XRECORD
  5
1D3
102
{ACAD_REACTORS
330
1D2
102
}
330
1D2
100
AcDbXrecord
280
     1
102
RTVSPropertyOp0
 70
     1
102
RTVSPropertyOp1
 70
     1
102
RTVSPropertyOp2
 70
     1
102
RTVSPropertyOp3
 70
     1
102
RTVSPropertyOp4
 70
     1
102
RTVSPropertyOp5
 70
     1
102
RTVSPropertyOp6
 70
     1
102
RTVSPropertyOp7
 70
     1
102
RTVSPropertyOp8
 70
     1
102
RTVSPropertyOp9
 70
     1
102
RTVSPropertyOp10
 70
     1
102
RTVSPropertyOp11
 70
     1
102
RTVSPropertyOp12
 70
     1
102
RTVSPropertyOp13
 70
     1
102
RTVSPropertyOp14
 70
     1
102
RTVSPropertyOp15
 70
     1
102
RTVSPropertyOp16
 70
     1
102
RTVSPropertyOp17
 70
     1
102
RTVSPropertyOp18
 70
     1
102
RTVSPropertyOp19
 70
     1
102
RTVSPropertyOp20
 70
     1
102
RTVSPropertyOp21
 70
     1
102
RTVSPropertyOp22
 70
     1
102
RTVSPropertyOp23
 70
     1
102
RTVSPropertyOp24
 70
     1
102
RTVSPropertyOp25
 70
     1
102
RTVSPropertyOp26
 70
     1
102
RTVSPropertyOp27
 70
     1
102
RTVSPropertyOp28
 70
     1
102
RTVSPropertyOp29
 70
     1
102
RTVSPropertyOp30
 70
     1
102
RTVSPropertyOp31
 70
     1
102
RTVSPropertyOp32
 70
     1
  0
XRECORD
  5
1D1
102
{ACAD_REACTORS
330
1D0
102
}
330
1D0
100
AcDbXrecord
280
     1
102
RTVSPropertyOp0
 70
     1
102
RTVSPropertyOp1
 70
     1
102
RTVSPropertyOp2
 70
     1
102
RTVSPropertyOp3
 70
     1
102
RTVSPropertyOp4
 70
     1
102
RTVSPropertyOp5
 70
     1
102
RTVSPropertyOp6
 70
     1
102
RTVSPropertyOp7
 70
     1
102
RTVSPropertyOp8
 70
     1
102
RTVSPropertyOp9
 70
     1
102
RTVSPropertyOp10
 70
     1
102
RTVSPropertyOp11
 70
     1
102
RTVSPropertyOp12
 70
     1
102
RTVSPropertyOp13
 70
     1
102
RTVSPropertyOp14
 70
     1
102
RTVSPropertyOp15
 70
     1
102
RTVSPropertyOp16
 70
     1
102
RTVSPropertyOp17
 70
     1
102
RTVSPropertyOp18
 70
     1
102
RTVSPropertyOp19
 70
     1
102
RTVSPropertyOp20
 70
     1
102
RTVSPropertyOp21
 70
     1
102
RTVSPropertyOp22
 70
     1
102
RTVSPropertyOp23
 70
     1
102
RTVSPropertyOp24
 70
     1
102
RTVSPropertyOp25
 70
     1
102
RTVSPropertyOp26
 70
     1
102
RTVSPropertyOp27
 70
     1
102
RTVSPropertyOp28
 70
     1
102
RTVSPropertyOp29
 70
     1
102
RTVSPropertyOp30
 70
     1
102
RTVSPropertyOp31
 70
     1
102
RTVSPropertyOp32
 70
     1
  0
XRECORD
  5
1D5
102
{ACAD_REACTORS
330
1D4
102
}
330
1D4
100
AcDbXrecord
280
     1
102
RTVSPropertyOp0
 70
     1
102
RTVSPropertyOp1
 70
     1
102
RTVSPropertyOp2
 70
     1
102
RTVSPropertyOp3
 70
     1
102
RTVSPropertyOp4
 70
     1
102
RTVSPropertyOp5
 70
     1
102
RTVSPropertyOp6
 70
     1
102
RTVSPropertyOp7
 70
     1
102
RTVSPropertyOp8
 70
     1
102
RTVSPropertyOp9
 70
     1
102
RTVSPropertyOp10
 70
     1
102
RTVSPropertyOp11
 70
     1
102
RTVSPropertyOp12
 70
     1
102
RTVSPropertyOp13
 70
     1
102
RTVSPropertyOp14
 70
     1
102
RTVSPropertyOp15
 70
     1
102
RTVSPropertyOp16
 70
     1
102
RTVSPropertyOp17
 70
     1
102
RTVSPropertyOp18
 70
     1
102
RTVSPropertyOp19
 70
     1
102
RTVSPropertyOp20
 70
     1
102
RTVSPropertyOp21
 70
     1
102
RTVSPropertyOp22
 70
     1
102
RTVSPropertyOp23
 70
     1
102
RTVSPropertyOp24
 70
     1
102
RTVSPropertyOp25
 70
     1
102
RTVSPropertyOp26
 70
     1
102
RTVSPropertyOp27
 70
     1
102
RTVSPropertyOp28
 70
     1
102
RTVSPropertyOp29
 70
     1
102
RTVSPropertyOp30
 70
     1
102
RTVSPropertyOp31
 70
     1
102
RTVSPropertyOp32
 70
     1
  0
XRECORD
  5
1DD
102
{ACAD_REACTORS
330
1DC
102
}
330
1DC
100
AcDbXrecord
280
     1
102
RTVSPropertyOp0
 70
     1
102
RTVSPropertyOp1
 70
     1
102
RTVSPropertyOp2
 70
     1
102
RTVSPropertyOp3
 70
     1
102
RTVSPropertyOp4
 70
     1
102
RTVSPropertyOp5
 70
     1
102
RTVSPropertyOp6
 70
     1
102
RTVSPropertyOp7
 70
     1
102
RTVSPropertyOp8
 70
     1
102
RTVSPropertyOp9
 70
     1
102
RTVSPropertyOp10
 70
     1
102
RTVSPropertyOp11
 70
     1
102
RTVSPropertyOp12
 70
     1
102
RTVSPropertyOp13
 70
     1
102
RTVSPropertyOp14
 70
     1
102
RTVSPropertyOp15
 70
     1
102
RTVSPropertyOp16
 70
     1
102
RTVSPropertyOp17
 70
     1
102
RTVSPropertyOp18
 70
     1
102
RTVSPropertyOp19
 70
     1
102
RTVSPropertyOp20
 70
     1
102
RTVSPropertyOp21
 70
     1
102
RTVSPropertyOp22
 70
     1
102
RTVSPropertyOp23
 70
     1
102
RTVSPropertyOp24
 70
     1
102
RTVSPropertyOp25
 70
     1
102
RTVSPropertyOp26
 70
     1
102
RTVSPropertyOp27
 70
     1
102
RTVSPropertyOp28
 70
     1
102
RTVSPropertyOp29
 70
     1
102
RTVSPropertyOp30
 70
     1
102
RTVSPropertyOp31
 70
     1
102
RTVSPropertyOp32
 70
     1
  0
XRECORD
  5
1E5
102
{ACAD_REACTORS
330
1E4
102
}
330
1E4
100
AcDbXrecord
280
     1
102
RTVSPropertyOp0
 70
     1
102
RTVSPropertyOp1
 70
     1
102
RTVSPropertyOp2
 70
     1
102
RTVSPropertyOp3
 70
     1
102
RTVSPropertyOp4
 70
     1
102
RTVSPropertyOp5
 70
     1
102
RTVSPropertyOp6
 70
     1
102
RTVSPropertyOp7
 70
     1
102
RTVSPropertyOp8
 70
     1
102
RTVSPropertyOp9
 70
     1
102
RTVSPropertyOp10
 70
     1
102
RTVSPropertyOp11
 70
     1
102
RTVSPropertyOp12
 70
     1
102
RTVSPropertyOp13
 70
     1
102
RTVSPropertyOp14
 70
     1
102
RTVSPropertyOp15
 70
     1
102
RTVSPropertyOp16
 70
     1
102
RTVSPropertyOp17
 70
     1
102
RTVSPropertyOp18
 70
     1
102
RTVSPropertyOp19
 70
     1
102
RTVSPropertyOp20
 70
     1
102
RTVSPropertyOp21
 70
     1
102
RTVSPropertyOp22
 70
     1
102
RTVSPropertyOp23
 70
     1
102
RTVSPropertyOp24
 70
     1
102
RTVSPropertyOp25
 70
     1
102
RTVSPropertyOp26
 70
     1
102
RTVSPropertyOp27
 70
     1
102
RTVSPropertyOp28
 70
     1
102
RTVSPropertyOp29
 70
     1
102
RTVSPropertyOp30
 70
     1
102
RTVSPropertyOp31
 70
     1
102
RTVSPropertyOp32
 70
     1
  0
XRECORD
  5
1D9
102
{ACAD_REACTORS
330
1D8
102
}
330
1D8
100
AcDbXrecord
280
     1
102
RTVSPropertyOp0
 70
     1
102
RTVSPropertyOp1
 70
     1
102
RTVSPropertyOp2
 70
     1
102
RTVSPropertyOp3
 70
     1
102
RTVSPropertyOp4
 70
     1
102
RTVSPropertyOp5
 70
     1
102
RTVSPropertyOp6
 70
     1
102
RTVSPropertyOp7
 70
     1
102
RTVSPropertyOp8
 70
     1
102
RTVSPropertyOp9
 70
     1
102
RTVSPropertyOp10
 70
     1
102
RTVSPropertyOp11
 70
     1
102
RTVSPropertyOp12
 70
     1
102
RTVSPropertyOp13
 70
     1
102
RTVSPropertyOp14
 70
     1
102
RTVSPropertyOp15
 70
     1
102
RTVSPropertyOp16
 70
     1
102
RTVSPropertyOp17
 70
     1
102
RTVSPropertyOp18
 70
     1
102
RTVSPropertyOp19
 70
     1
102
RTVSPropertyOp20
 70
     1
102
RTVSPropertyOp21
 70
     1
102
RTVSPropertyOp22
 70
     1
102
RTVSPropertyOp23
 70
     1
102
RTVSPropertyOp24
 70
     1
102
RTVSPropertyOp25
 70
     1
102
RTVSPropertyOp26
 70
     1
102
RTVSPropertyOp27
 70
     1
102
RTVSPropertyOp28
 70
     1
102
RTVSPropertyOp29
 70
     1
102
RTVSPropertyOp30
 70
     1
102
RTVSPropertyOp31
 70
     1
102
RTVSPropertyOp32
 70
     1
  0
XRECORD
  5
1DB
102
{ACAD_REACTORS
330
1DA
102
}
330
1DA
100
AcDbXrecord
280
     1
102
RTVSPropertyOp0
 70
     1
102
RTVSPropertyOp1
 70
     1
102
RTVSPropertyOp2
 70
     1
102
RTVSPropertyOp3
 70
     1
102
RTVSPropertyOp4
 70
     1
102
RTVSPropertyOp5
 70
     1
102
RTVSPropertyOp6
 70
     1
102
RTVSPropertyOp7
 70
     1
102
RTVSPropertyOp8
 70
     1
102
RTVSPropertyOp9
 70
     1
102
RTVSPropertyOp10
 70
     1
102
RTVSPropertyOp11
 70
     1
102
RTVSPropertyOp12
 70
     1
102
RTVSPropertyOp13
 70
     1
102
RTVSPropertyOp14
 70
     1
102
RTVSPropertyOp15
 70
     1
102
RTVSPropertyOp16
 70
     1
102
RTVSPropertyOp17
 70
     1
102
RTVSPropertyOp18
 70
     1
102
RTVSPropertyOp19
 70
     1
102
RTVSPropertyOp20
 70
     1
102
RTVSPropertyOp21
 70
     1
102
RTVSPropertyOp22
 70
     1
102
RTVSPropertyOp23
 70
     1
102
RTVSPropertyOp24
 70
     1
102
RTVSPropertyOp25
 70
     1
102
RTVSPropertyOp26
 70
     1
102
RTVSPropertyOp27
 70
     1
102
RTVSPropertyOp28
 70
     1
102
RTVSPropertyOp29
 70
     1
102
RTVSPropertyOp30
 70
     1
102
RTVSPropertyOp31
 70
     1
102
RTVSPropertyOp32
 70
     1
  0
XRECORD
  5
1E3
102
{ACAD_REACTORS
330
1E2
102
}
330
1E2
100
AcDbXrecord
280
     1
102
RTVSPropertyOp0
 70
     1
102
RTVSPropertyOp1
 70
     1
102
RTVSPropertyOp2
 70
     1
102
RTVSPropertyOp3
 70
     1
102
RTVSPropertyOp4
 70
     1
102
RTVSPropertyOp5
 70
     1
102
RTVSPropertyOp6
 70
     1
102
RTVSPropertyOp7
 70
     1
102
RTVSPropertyOp8
 70
     1
102
RTVSPropertyOp9
 70
     1
102
RTVSPropertyOp10
 70
     1
102
RTVSPropertyOp11
 70
     1
102
RTVSPropertyOp12
 70
     1
102
RTVSPropertyOp13
 70
     1
102
RTVSPropertyOp14
 70
     1
102
RTVSPropertyOp15
 70
     1
102
RTVSPropertyOp16
 70
     1
102
RTVSPropertyOp17
 70
     1
102
RTVSPropertyOp18
 70
     1
102
RTVSPropertyOp19
 70
     1
102
RTVSPropertyOp20
 70
     1
102
RTVSPropertyOp21
 70
     1
102
RTVSPropertyOp22
 70
     1
102
RTVSPropertyOp23
 70
     1
102
RTVSPropertyOp24
 70
     1
102
RTVSPropertyOp25
 70
     1
102
RTVSPropertyOp26
 70
     1
102
RTVSPropertyOp27
 70
     1
102
RTVSPropertyOp28
 70
     1
102
RTVSPropertyOp29
 70
     1
102
RTVSPropertyOp30
 70
     1
102
RTVSPropertyOp31
 70
     1
102
RTVSPropertyOp32
 70
     1
  0
XRECORD
  5
1C7
102
{ACAD_REACTORS
330
1C6
102
}
330
1C6
100
AcDbXrecord
280
     1
102
RTVSPropertyOp0
 70
     1
102
RTVSPropertyOp1
 70
     1
102
RTVSPropertyOp2
 70
     1
102
RTVSPropertyOp3
 70
     1
102
RTVSPropertyOp4
 70
     1
102
RTVSPropertyOp5
 70
     1
102
RTVSPropertyOp6
 70
     1
102
RTVSPropertyOp7
 70
     1
102
RTVSPropertyOp8
 70
     1
102
RTVSPropertyOp9
 70
     1
102
RTVSPropertyOp10
 70
     1
102
RTVSPropertyOp11
 70
     1
102
RTVSPropertyOp12
 70
     1
102
RTVSPropertyOp13
 70
     1
102
RTVSPropertyOp14
 70
     1
102
RTVSPropertyOp15
 70
     1
102
RTVSPropertyOp16
 70
     1
102
RTVSPropertyOp17
 70
     1
102
RTVSPropertyOp18
 70
     1
102
RTVSPropertyOp19
 70
     1
102
RTVSPropertyOp20
 70
     1
102
RTVSPropertyOp21
 70
     1
102
RTVSPropertyOp22
 70
     1
102
RTVSPropertyOp23
 70
     1
102
RTVSPropertyOp24
 70
     1
102
RTVSPropertyOp25
 70
     1
102
RTVSPropertyOp26
 70
     1
102
RTVSPropertyOp27
 70
     1
102
RTVSPropertyOp28
 70
     1
102
RTVSPropertyOp29
 70
     1
102
RTVSPropertyOp30
 70
     1
102
RTVSPropertyOp31
 70
     1
102
RTVSPropertyOp32
 70
     1
  0
XRECORD
  5
1C9
102
{ACAD_REACTORS
330
1C8
102
}
330
1C8
100
AcDbXrecord
280
     1
102
RTVSPropertyOp0
 70
     1
102
RTVSPropertyOp1
 70
     1
102
RTVSPropertyOp2
 70
     1
102
RTVSPropertyOp3
 70
     1
102
RTVSPropertyOp4
 70
     1
102
RTVSPropertyOp5
 70
     1
102
RTVSPropertyOp6
 70
     1
102
RTVSPropertyOp7
 70
     1
102
RTVSPropertyOp8
 70
     1
102
RTVSPropertyOp9
 70
     1
102
RTVSPropertyOp10
 70
     1
102
RTVSPropertyOp11
 70
     1
102
RTVSPropertyOp12
 70
     1
102
RTVSPropertyOp13
 70
     1
102
RTVSPropertyOp14
 70
     1
102
RTVSPropertyOp15
 70
     1
102
RTVSPropertyOp16
 70
     1
102
RTVSPropertyOp17
 70
     1
102
RTVSPropertyOp18
 70
     1
102
RTVSPropertyOp19
 70
     1
102
RTVSPropertyOp20
 70
     1
102
RTVSPropertyOp21
 70
     1
102
RTVSPropertyOp22
 70
     1
102
RTVSPropertyOp23
 70
     1
102
RTVSPropertyOp24
 70
     1
102
RTVSPropertyOp25
 70
     1
102
RTVSPropertyOp26
 70
     1
102
RTVSPropertyOp27
 70
     1
102
RTVSPropertyOp28
 70
     1
102
RTVSPropertyOp29
 70
     1
102
RTVSPropertyOp30
 70
     1
102
RTVSPropertyOp31
 70
     1
102
RTVSPropertyOp32
 70
     1
  0
XRECORD
  5
1CB
102
{ACAD_REACTORS
330
1CA
102
}
330
1CA
100
AcDbXrecord
280
     1
102
RTVSPropertyOp0
 70
     1
102
RTVSPropertyOp1
 70
     1
102
RTVSPropertyOp2
 70
     1
102
RTVSPropertyOp3
 70
     1
102
RTVSPropertyOp4
 70
     1
102
RTVSPropertyOp5
 70
     1
102
RTVSPropertyOp6
 70
     1
102
RTVSPropertyOp7
 70
     1
102
RTVSPropertyOp8
 70
     1
102
RTVSPropertyOp9
 70
     1
102
RTVSPropertyOp10
 70
     1
102
RTVSPropertyOp11
 70
     1
102
RTVSPropertyOp12
 70
     1
102
RTVSPropertyOp13
 70
     1
102
RTVSPropertyOp14
 70
     1
102
RTVSPropertyOp15
 70
     1
102
RTVSPropertyOp16
 70
     1
102
RTVSPropertyOp17
 70
     1
102
RTVSPropertyOp18
 70
     1
102
RTVSPropertyOp19
 70
     1
102
RTVSPropertyOp20
 70
     1
102
RTVSPropertyOp21
 70
     1
102
RTVSPropertyOp22
 70
     1
102
RTVSPropertyOp23
 70
     1
102
RTVSPropertyOp24
 70
     1
102
RTVSPropertyOp25
 70
     1
102
RTVSPropertyOp26
 70
     1
102
RTVSPropertyOp27
 70
     1
102
RTVSPropertyOp28
 70
     1
102
RTVSPropertyOp29
 70
     1
102
RTVSPropertyOp30
 70
     1
102
RTVSPropertyOp31
 70
     1
102
RTVSPropertyOp32
 70
     1
  0
XRECORD
  5
1CD
102
{ACAD_REACTORS
330
1CC
102
}
330
1CC
100
AcDbXrecord
280
     1
102
RTVSPropertyOp0
 70
     1
102
RTVSPropertyOp1
 70
     1
102
RTVSPropertyOp2
 70
     1
102
RTVSPropertyOp3
 70
     1
102
RTVSPropertyOp4
 70
     1
102
RTVSPropertyOp5
 70
     1
102
RTVSPropertyOp6
 70
     1
102
RTVSPropertyOp7
 70
     1
102
RTVSPropertyOp8
 70
     1
102
RTVSPropertyOp9
 70
     1
102
RTVSPropertyOp10
 70
     1
102
RTVSPropertyOp11
 70
     1
102
RTVSPropertyOp12
 70
     1
102
RTVSPropertyOp13
 70
     1
102
RTVSPropertyOp14
 70
     1
102
RTVSPropertyOp15
 70
     1
102
RTVSPropertyOp16
 70
     1
102
RTVSPropertyOp17
 70
     1
102
RTVSPropertyOp18
 70
     1
102
RTVSPropertyOp19
 70
     1
102
RTVSPropertyOp20
 70
     1
102
RTVSPropertyOp21
 70
     1
102
RTVSPropertyOp22
 70
     1
102
RTVSPropertyOp23
 70
     1
102
RTVSPropertyOp24
 70
     1
102
RTVSPropertyOp25
 70
     1
102
RTVSPropertyOp26
 70
     1
102
RTVSPropertyOp27
 70
     1
102
RTVSPropertyOp28
 70
     1
102
RTVSPropertyOp29
 70
     1
102
RTVSPropertyOp30
 70
     1
102
RTVSPropertyOp31
 70
     1
102
RTVSPropertyOp32
 70
     1
  0
XRECORD
  5
1E1
102
{ACAD_REACTORS
330
1E0
102
}
330
1E0
100
AcDbXrecord
280
     1
102
RTVSPropertyOp0
 70
     1
102
RTVSPropertyOp1
 70
     1
102
RTVSPropertyOp2
 70
     1
102
RTVSPropertyOp3
 70
     1
102
RTVSPropertyOp4
 70
     1
102
RTVSPropertyOp5
 70
     1
102
RTVSPropertyOp6
 70
     1
102
RTVSPropertyOp7
 70
     1
102
RTVSPropertyOp8
 70
     1
102
RTVSPropertyOp9
 70
     1
102
RTVSPropertyOp10
 70
     1
102
RTVSPropertyOp11
 70
     1
102
RTVSPropertyOp12
 70
     1
102
RTVSPropertyOp13
 70
     1
102
RTVSPropertyOp14
 70
     1
102
RTVSPropertyOp15
 70
     1
102
RTVSPropertyOp16
 70
     1
102
RTVSPropertyOp17
 70
     1
102
RTVSPropertyOp18
 70
     1
102
RTVSPropertyOp19
 70
     1
102
RTVSPropertyOp20
 70
     1
102
RTVSPropertyOp21
 70
     1
102
RTVSPropertyOp22
 70
     1
102
RTVSPropertyOp23
 70
     1
102
RTVSPropertyOp24
 70
     1
102
RTVSPropertyOp25
 70
     1
102
RTVSPropertyOp26
 70
     1
102
RTVSPropertyOp27
 70
     1
102
RTVSPropertyOp28
 70
     1
102
RTVSPropertyOp29
 70
     1
102
RTVSPropertyOp30
 70
     1
102
RTVSPropertyOp31
 70
     1
102
RTVSPropertyOp32
 70
     1
  0
XRECORD
  5
1D7
102
{ACAD_REACTORS
330
1D6
102
}
330
1D6
100
AcDbXrecord
280
     1
102
RTVSPropertyOp0
 70
     1
102
RTVSPropertyOp1
 70
     1
102
RTVSPropertyOp2
 70
     1
102
RTVSPropertyOp3
 70
     1
102
RTVSPropertyOp4
 70
     1
102
RTVSPropertyOp5
 70
     1
102
RTVSPropertyOp6
 70
     1
102
RTVSPropertyOp7
 70
     1
102
RTVSPropertyOp8
 70
     1
102
RTVSPropertyOp9
 70
     1
102
RTVSPropertyOp10
 70
     1
102
RTVSPropertyOp11
 70
     1
102
RTVSPropertyOp12
 70
     1
102
RTVSPropertyOp13
 70
     1
102
RTVSPropertyOp14
 70
     1
102
RTVSPropertyOp15
 70
     1
102
RTVSPropertyOp16
 70
     1
102
RTVSPropertyOp17
 70
     1
102
RTVSPropertyOp18
 70
     1
102
RTVSPropertyOp19
 70
     1
102
RTVSPropertyOp20
 70
     1
102
RTVSPropertyOp21
 70
     1
102
RTVSPropertyOp22
 70
     1
102
RTVSPropertyOp23
 70
     1
102
RTVSPropertyOp24
 70
     1
102
RTVSPropertyOp25
 70
     1
102
RTVSPropertyOp26
 70
     1
102
RTVSPropertyOp27
 70
     1
102
RTVSPropertyOp28
 70
     1
102
RTVSPropertyOp29
 70
     1
102
RTVSPropertyOp30
 70
     1
102
RTVSPropertyOp31
 70
     1
102
RTVSPropertyOp32
 70
     1
  0
XRECORD
  5
1DF
102
{ACAD_REACTORS
330
1DE
102
}
330
1DE
100
AcDbXrecord
280
     1
102
RTVSPropertyOp0
 70
     1
102
RTVSPropertyOp1
 70
     1
102
RTVSPropertyOp2
 70
     1
102
RTVSPropertyOp3
 70
     1
102
RTVSPropertyOp4
 70
     1
102
RTVSPropertyOp5
 70
     1
102
RTVSPropertyOp6
 70
     1
102
RTVSPropertyOp7
 70
     1
102
RTVSPropertyOp8
 70
     1
102
RTVSPropertyOp9
 70
     1
102
RTVSPropertyOp10
 70
     1
102
RTVSPropertyOp11
 70
     1
102
RTVSPropertyOp12
 70
     1
102
RTVSPropertyOp13
 70
     1
102
RTVSPropertyOp14
 70
     1
102
RTVSPropertyOp15
 70
     1
102
RTVSPropertyOp16
 70
     1
102
RTVSPropertyOp17
 70
     1
102
RTVSPropertyOp18
 70
     1
102
RTVSPropertyOp19
 70
     1
102
RTVSPropertyOp20
 70
     1
102
RTVSPropertyOp21
 70
     1
102
RTVSPropertyOp22
 70
     1
102
RTVSPropertyOp23
 70
     1
102
RTVSPropertyOp24
 70
     1
102
RTVSPropertyOp25
 70
     1
102
RTVSPropertyOp26
 70
     1
102
RTVSPropertyOp27
 70
     1
102
RTVSPropertyOp28
 70
     1
102
RTVSPropertyOp29
 70
     1
102
RTVSPropertyOp30
 70
     1
102
RTVSPropertyOp31
 70
     1
102
RTVSPropertyOp32
 70
     1
  0
ENDSEC
  0
EOF
